BitTorrentTracker PerecTracker.org
BitTorrentTracker PerecTracker.org
    
Регистрация  ·  Вход
 
 · 
Забыли пароль?

  • Везёт же людям (Александр Полынников) [2014, Украина, Комедия, музыкальный фильм, HDTVRip]

    Ответить на тему
     
    Автор Сообщение

    Columb

    Создавать темы 18-Сен-2014 12:02

           

    [Цитировать]

    Везёт же людям-Страна: Украина
    Жанр: Комедия, музыкальный фильм
    Год выпуска: 2014
    Продолжительность: 01:29:55-Перевод: Не требуется
    Cубтитры: нет
    Оригинальная аудиодорожка: русский-Режиссёр: Александр Полынников-В ролях: Анна Щапова, Сергей Деньга, Екатерина Порубель, Нонна Гришаева, Ольга Мельничук (II), Николай Шкуратовский, Сергей Юрков, Леонид Анисимов, Татьяна Маркова, Ирина Токарчук, Игорь Тильтиков, Карина Шрагина, Алина Шелудченко, Сергей Тодорич, Вадим Садковский, Оксана Кошевая-Описание: Соне с утра не везёт. Она чуть не попадает под машину Кости, которому также не везёт в этот день. По ошибке она уносит его папку с документами и ставит под угрозу срыва подписание важного контракта. На этом проблемы молодых людей не заканчиваются. От Кости уходит невеста, а Соню увольняют из театра. И она уже готова отказаться от мечты стать актрисой. Удастся ли героям найти своё счастье в этом году, если до Нового Года остаётся всего один день?-Сэмпл
    Кинопоиск-Качество видео: HDTVRip
    Формат видео: AVI-Видео: 720x400 (1.80:1), 25 fps, XviD build 50 ~1714 kbps avg, 0.24 bit/pixel
    Аудио: 48 kHz, AC3 Dolby Digital, 3/2 (L,C,R,l,r) + LFE ch, ~448 kbps-

    MediaInfo

    General
    Complete name : C:\Vezet.zhe.lyudyam.2014.XviD.HDTVRip.avi
    Format : AVI
    Format/Info : Audio Video Interleave
    File size : 1.36 GiB
    Duration : 1h 29mn
    Overall bit rate : 2 172 Kbps
    Movie name : Vezet.zhe.lyudyam.2014.XviD.HDTVRip
    Director : @dvokat
    Writing application : VirtualDubMod 1.5.10.3 | www.virtualdub-fr.org || (build 2550/release)
    Video
    ID : 0
    Format : MPEG-4 Visual
    Format profile : Advanced Simple@L5
    Format settings, BVOP : 4
    Format settings, QPel : No
    Format settings, GMC : No warppoints
    Format settings, Matrix : Default (MPEG)
    Codec ID : XVID
    Codec ID/Hint : XviD
    Duration : 1h 29mn
    Bit rate : 1 714 Kbps
    Width : 720 pixels
    Height : 400 pixels
    Display aspect ratio : 16:9
    Frame rate : 25.000 fps
    Color space : YUV
    Chroma subsampling : 4:2:0
    Bit depth : 8 bits
    Scan type : Progressive
    Compression mode : Lossy
    Bits/(Pixel*Frame) : 0.238
    Stream size : 1.08 GiB (79%)
    Writing library : XviD 1.2.1 (UTC 2008-12-04)
    Audio
    ID : 1
    Format : AC-3
    Format/Info : Audio Coding 3
    Mode extension : CM (complete main)
    Format settings, Endianness : Big
    Codec ID : 2000
    Duration : 1h 29mn
    Bit rate mode : Constant
    Bit rate : 448 Kbps
    Channel(s) : 6 channels
    Channel positions : Front: L C R, Side: L R, LFE
    Sampling rate : 48.0 KHz
    Bit depth : 16 bits
    Compression mode : Lossy
    Stream size : 288 MiB (21%)
    Alignment : Split accross interleaves
    Interleave, duration : 40 ms (1.00 video frame)
    Interleave, preload duration : 500 ms

    Скриншот c названием фильма

    Скриншоты

    Скачать .torrent

    Скачать торрент-файл бесплатно и на максимальной скорости!

    Как скачивать? · Что такое торрент? · Рейтинг и ограничения

    !ВНИМАНИЕ!
    Сайт не распространяет и не хранит электронные версии произведений, а занимается лишь лишь предоставлением доступа к создаваемому пользователями каталогу ссылок на торрент-файлы, которые содержат только списки хеш-сумм, убедительная просьба с жалобами обращаться напрямую к пользователю. Файлы для обмена на трекере предоставлены пользователями сайта, и администрация не несёт ответственности за их содержание. Просьба не заливать файлы, защищенные авторскими правами, а также файлы нелегального содержания!

    [Профиль] [ЛС]
    Показать сообщения:    
    Ответить на тему

    Текущее время: Сегодня, в 16:24

    Часовой пояс: GMT + 2



    Вы не можете начинать темы
    Вы не можете отвечать на сообщения
    Вы не можете редактировать свои сообщения
    Вы не можете удалять свои сообщения
    Вы не можете голосовать в опросах
    Вы не можете прикреплять файлы к сообщениям
    Вы не можете скачивать файлы