Register  ·  Log in
Forgot password?

  • Рука на миллион / Million Dollar Arm (Крэйг Гиллеспи / Craig Gillespie) [2014, США, драма, биография, спорт, WEBRip] Dub [line]

    Reply to topic
    Author Message


    Post 18-Sep-2014 12:59



    Рука на миллион / Million Dollar Arm
    Страна: США / Walt Disney Pictures, Mayhem Pictures, Roth Films
    Жанр: драма, биография, спорт
    Год выпуска: 2014
    Продолжительность: 01:58:30
    Перевод: Профессиональный (дублированный) [line]
    Cубтитры: нет
    Режиссер: Крэйг Гиллеспи / Craig Gillespie
    В ролях: Джон Хэмм, Питобаш Трипати, Сурадж Шарма, Мадхур Миттал, Аасиф Мандви, Даршан Джаривала, Лэйк Белл, Алан Аркин, Билл Пэкстон, Грегори Алан Уильямс
    Описание: Спортивный агент использует нетрадиционные способы найма, чтобы переманить талантливых азиатских игроков в крикет в Высшую лигу бейсбола.
    Качество видео: WEBRip
    Формат видео: AVI
    Видео: 720x400 (2.35:1), 24.000 fps, XviD 1.2.1 ~1451 kbps avg, 0.210 bit/pixel
    Аудио: 48 kHz, AC-3, 2 ch, ~192 kbps


    Complete name : F:\Download\Pyka.Ha.Million..avi
    Format : AVI
    Format/Info : Audio Video Interleave
    File size : 1.37 GiB
    Duration : 1h 58mn
    Overall bit rate : 1 652 Kbps
    Writing application : VirtualDubMod (build 2540/release)
    Writing library : VirtualDubMod build 2540/release
    ID : 0
    Format : MPEG-4 Visual
    Format profile : Advanced Simple@L5
    Format settings, BVOP : 2
    Format settings, QPel : No
    Format settings, GMC : No warppoints
    Format settings, Matrix : Default (MPEG)
    Codec ID : XVID
    Codec ID/Hint : XviD
    Duration : 1h 58mn
    Bit rate : 1 451 Kbps
    Width : 720 pixels
    Height : 400 pixels
    Display aspect ratio : 16:9
    Frame rate : 24.000 fps
    Color space : YUV
    Chroma subsampling : 4:2:0
    Bit depth : 8 bits
    Scan type : Progressive
    Compression mode : Lossy
    Bits/(Pixel*Frame) : 0.210
    Stream size : 1.20 GiB (88%)
    Writing library : XviD 1.2.1 (UTC 2008-12-04)
    ID : 1
    Format : AC-3
    Format/Info : Audio Coding 3
    Mode extension : CM (complete main)
    Format settings, Endianness : Big
    Codec ID : 2000
    Duration : 1h 58mn
    Bit rate mode : Constant
    Bit rate : 192 Kbps
    Channel(s) : 2 channels
    Channel positions : Front: L R
    Sampling rate : 48.0 KHz
    Bit depth : 16 bits
    Compression mode : Lossy
    Stream size : 163 MiB (12%)
    Alignment : Split accross interleaves
    Interleave, duration : 42 ms (1.00 video frame)
    Interleave, preload duration : 500 ms

    Скриншот c названием фильма


    Download .torrent

    Download free and at maximum speed!

    How to Download? · What is a torrent? · Ratings and Limitations

    The site does not extend and does not store electronic(digital) versions of products, and only gives access to a reference catalogue created by users on torrent-files which contain only lists of the hash-sums, the earnest entreaty, with complaints(abuse) to access directly to the user. Files for an exchange on tracker are given by users of a site, and the administration does not bear the responsibility for their maintenance. The request to not fill in the files protected by copyrights, and also files of the illegal maintenance!

    [Profile] [PM]
    Display posts from previous:    
    Reply to topic

    The time now is: Today 08:06

    All times are GMT + 3 Hours

    You cannot post new topics in this forum
    You cannot reply to topics in this forum
    You cannot edit your posts in this forum
    You cannot delete your posts in this forum
    You cannot vote in polls in this forum
    You cannot attach files in this forum
    You cannot download files in this forum