Register  ·  Log in
Forgot password?

  • Медовый месяц / Honeymoon (Ли Джаньяк / Leigh Janiak) [2014, США, ужасы, HDTVRip] VO (R.A.I.M)

    Reply to topic
    Author Message


    Post 18-Sep-2014 12:57



    Медовый месяц / Honeymoon
    Страна: США
    Жанр: ужасы
    Год выпуска: 2014
    Продолжительность: 01:27:28
    Перевод: Одноголосый закадровый [R.A.I.M]
    Cубтитры: нет
    Оригинальная аудиодорожка: нет
    Режиссер: Ли Джаньяк / Leigh Janiak
    В ролях: Роуз Лесли, Гарри Тредэвэй, Бен Хубер, Ханна Браун, Генри Лоуренс
    Описание: Молодожёны Пол и Би отправляются в удалённое местечко у озера, чтобы провести там медовый месяц. Вскоре после прибытия Пол находит Би блуждающей посреди ночи в лесу. И по мере того, как она становится всё более отчуждённой, Пол начинает подозревать, что это был не просто лунатизм и в лесу произошло что-то ужасное…
    Качество видео: HDTVRip
    Формат видео: AVI
    Видео: Xvid 720x384 23.98fps 1 844 Kbps
    Аудио: Dolby AC3 48000Hz 6ch 384kbps


    Format : AVI
    Format/Info : Audio Video Interleave
    File size : 1.37 GiB
    Duration : 1h 27mn
    Overall bit rate : 2 237 Kbps
    Writing application : VirtualDubMod | || (build 2550/release)
    Writing library : VirtualDubMod build 2550/release
    ID : 0
    Format : MPEG-4 Visual
    Format profile : Advanced Simple@L5
    Format settings, BVOP : Yes
    Format settings, QPel : No
    Format settings, GMC : No warppoints
    Format settings, Matrix : Default (MPEG)
    Codec ID : XVID
    Codec ID/Hint : XviD
    Duration : 1h 27mn
    Bit rate : 1 844 Kbps
    Width : 720 pixels
    Height : 384 pixels
    Display aspect ratio : 1.875
    Frame rate : 23.976 fps
    Resolution : 8 bits
    Colorimetry : 4:2:0
    Scan type : Progressive
    Bits/(Pixel*Frame) : 0.278
    Stream size : 1.13 GiB (82%)
    Writing library : XviD 1.2.1 (UTC 2008-12-04)
    ID : 1
    Format : AC-3
    Format/Info : Audio Coding 3
    Codec ID : 2000
    Duration : 1h 27mn
    Bit rate mode : Constant
    Bit rate : 384 Kbps
    Channel(s) : 6 channels
    Channel positions : Front: L C R, Surround: L R, LFE
    Sampling rate : 48.0 KHz
    Stream size : 240 MiB (17%)
    Alignment : Split accross interleaves
    Interleave, duration : 42 ms (1.00 video frame)
    Interleave, preload duration : 500 ms

    Скриншот c названием фильма


    Download .torrent

    Download free and at maximum speed!

    How to Download? · What is a torrent? · Ratings and Limitations

    The site does not extend and does not store electronic(digital) versions of products, and only gives access to a reference catalogue created by users on torrent-files which contain only lists of the hash-sums, the earnest entreaty, with complaints(abuse) to access directly to the user. Files for an exchange on tracker are given by users of a site, and the administration does not bear the responsibility for their maintenance. The request to not fill in the files protected by copyrights, and also files of the illegal maintenance!

    [Profile] [PM]
    Display posts from previous:    
    Reply to topic

    The time now is: Today 13:14

    All times are GMT + 3 Hours

    You cannot post new topics in this forum
    You cannot reply to topics in this forum
    You cannot edit your posts in this forum
    You cannot delete your posts in this forum
    You cannot vote in polls in this forum
    You cannot attach files in this forum
    You cannot download files in this forum