BitTorrentTracker PerecTracker.org
BitTorrentTracker PerecTracker.org
    
Регистрация  ·  Вход
 
 · 
Забыли пароль?

  • Kasabian at iTunes Festival London 2014 [2014, indie rock, WEB-DL 1080p]

    Ответить на тему
     
    Автор Сообщение

    Columb

    Создавать темы 15-Сен-2014 16:21

           

    [Цитировать]

    Kasabian at iTunes Festival London 2014
    Жанр: alternative rock, indie rock
    Продолжительность: 2:33:37
    Дата выпуска: 05.09.2014
    Сетлист:
    1. Club Foot
    2. Processed Beats
    3. Reason Is Treason
    4. I.D.
    5. Orange
    6. L.S.F. (Lost Souls Forever)
    7. Running Battle
    8. Test Transmission
    9. Pinch Roller
    10. Cutt Off
    11. Butcher Blues
    12. Ovary Stripe
    13. U Boat
    Intermission
    (shiva)
    14. bumblebeee
    15. Shoot the Runner (Black Skinhead Intro)
    16. Underdog
    17. stevie
    18. Days Are Forgotten
    19. eez-eh
    20. Fast Fuse
    21. bow
    22. Re‐Wired
    23. treat
    24. Goodbye Kiss
    25. Empire (Extended Intro)
    26. Vlad the Impaler
    27. Fire
    Качество: WEB-DL 1080p
    Контейнер: MKV
    Видео кодек: H.264
    Аудио кодек: AC3
    Видео: H.264 High@L4.0, 1920 x 1080, 8 500 Kbps, 23.976 fps
    Аудио: AC-3, 448 Kbps, 48.0 KHz, 6 channels

    Отчёт MediaInfo

    GeneralFormat : MatroskaFormat version : Version 4 / Version 2File size : 9.38 GiBDuration : 2h 33mnOverall bit rate : 8 738 Kbps
    VideoID : 1Format : AVCFormat/Info : Advanced Video CodecFormat profile : High@L4.0Format settings, CABAC : YesFormat settings, ReFrames : 2 framesCodec ID : V_MPEG4/ISO/AVCDuration : 2h 33mnBit rate : 8 116 KbpsWidth : 1 920 pixelsHeight : 1 080 pixelsDisplay aspect ratio : 16:9Frame rate mode : ConstantFrame rate : 23.976 fpsColor space : YUVChroma subsampling : 4:2:0Bit depth : 8 bitsScan type : ProgressiveBits/(Pixel*Frame) : 0.163Stream size : 8.71 GiB (93%)Language : EnglishDefault : YesForced : No
    AudioID : 2Format : AC-3Format/Info : Audio Coding 3Mode extension : CM (complete main)Format settings, Endianness : BigCodec ID : A_AC3Duration : 2h 33mnBit rate mode : ConstantBit rate : 448 KbpsChannel(s) : 6 channelsChannel positions : Front: L C R, Side: L R, LFESampling rate : 48.0 KHzBit depth : 16 bitsCompression mode : LossyDelay relative to video : -63msStream size : 492 MiB (5%)Language : EnglishDefault : YesForced : No

    Скриншоты

    Скачать .torrent

    Скачать торрент-файл бесплатно и на максимальной скорости!

    Как скачивать? · Что такое торрент? · Рейтинг и ограничения

    !ВНИМАНИЕ!
    Сайт не распространяет и не хранит электронные версии произведений, а занимается лишь лишь предоставлением доступа к создаваемому пользователями каталогу ссылок на торрент-файлы, которые содержат только списки хеш-сумм, убедительная просьба с жалобами обращаться напрямую к пользователю. Файлы для обмена на трекере предоставлены пользователями сайта, и администрация не несёт ответственности за их содержание. Просьба не заливать файлы, защищенные авторскими правами, а также файлы нелегального содержания!

    [Профиль] [ЛС]
    Показать сообщения:    
    Ответить на тему

    Текущее время: Сегодня, в 02:29

    Часовой пояс: GMT + 2



    Вы не можете начинать темы
    Вы не можете отвечать на сообщения
    Вы не можете редактировать свои сообщения
    Вы не можете удалять свои сообщения
    Вы не можете голосовать в опросах
    Вы не можете прикреплять файлы к сообщениям
    Вы не можете скачивать файлы