BitTorrentTracker PerecTracker.org
BitTorrentTracker PerecTracker.org
    
Регистрация  ·  Вход
 
 · 
Забыли пароль?

  • Family of the Year. SWR3 New Pop Festival 2014 [2014, Indie rock/Indie folk/Indie pop, HDTV 720p]

    Ответить на тему
     
    Автор Сообщение

    Columb

    Создавать темы 15-Сен-2014 16:12

           

    [Цитировать]

    Family of the Year. SWR3 New Pop Festival 2014
    Жанр: Indie rock/Indie folk/Indie pop
    Продолжительность: 01:05:15
    Год выпуска: 2014
    Описание: Выступление калифорнийского indie rock бэнда Family of the Year на музыкальном фестивале молодых исполнителей SWR3 New Pop Festival проходящего в немецком Баден-Бадене 2014 sep11-13
    Доп. информация: Собственная запись со спутникового канала EinsPlus 2014 sep12
    Треклист:
    St. Croix
    Great Escape
    Buried
    Never Enough
    Diversity
    Living On Love
    Everytime
    Carry Me
    Stupidland
    In the End
    The Stairs
    Hero
    Summer Girl
    Find It
    Качество: HDTV 720p
    Контейнер: TS
    Видео кодек: H.264
    Аудио кодек: AC3
    Видео: Mpeg4 AVC, 1280x720, 13500 kbps, 50 fps Progressive
    Аудио: AC3, 448 kbps, 48 kHz, 5.1 ch
    Аудио 2: MP2, 192 kbps, 48 kHz, stereo
    Аудио 3: MP2, 192 kbps, 48 kHz, stereo

    Отчёт MediaInfo / BDInfo

    GeneralID : 1 (0x1)Complete name : D:\Downloads\Family of the Year. SWR3 New Pop Festival 2014.tsFormat : MPEG-TSFile size : 6.90 GiBDuration : 1h 5mnOverall bit rate mode : VariableOverall bit rate : 15.1 Mbps
    VideoID : 5421 (0x152D)Menu ID : 1 (0x1)Format : AVCFormat/Info : Advanced Video CodecFormat profile : High@L4.0Format settings, CABAC : YesFormat settings, ReFrames : 4 framesFormat settings, GOP : M=8, N=32Codec ID : 27Duration : 1h 5mnBit rate : 13.5 MbpsWidth : 1 280 pixelsHeight : 720 pixelsDisplay aspect ratio : 16:9Frame rate : 50.000 fpsColor space : YUVChroma subsampling : 4:2:0Bit depth : 8 bitsScan type : ProgressiveBits/(Pixel*Frame) : 0.294Stream size : 6.18 GiB (90%)
    Audio #1ID : 5422 (0x152E)Menu ID : 1 (0x1)Format : MPEG AudioFormat version : Version 1Format profile : Layer 2Codec ID : 3Duration : 1h 5mnBit rate mode : ConstantBit rate : 192 KbpsChannel(s) : 2 channelsSampling rate : 48.0 KHzCompression mode : LossyStream size : 89.6 MiB (1%)Language : German
    Audio #2ID : 5423 (0x152F)Menu ID : 1 (0x1)Format : MPEG AudioFormat version : Version 1Format profile : Layer 2Codec ID : 3Duration : 1h 5mnBit rate mode : ConstantBit rate : 192 KbpsChannel(s) : 2 channelsSampling rate : 48.0 KHzCompression mode : LossyStream size : 89.6 MiB (1%)
    Audio #3ID : 5426 (0x1532)Menu ID : 1 (0x1)Format : AC-3Format/Info : Audio Coding 3Mode extension : CM (complete main)Format settings, Endianness : BigCodec ID : 6Duration : 1h 5mnBit rate mode : ConstantBit rate : 448 KbpsChannel(s) : 6 channelsChannel positions : Front: L C R, Side: L R, LFESampling rate : 48.0 KHzBit depth : 16 bitsCompression mode : LossyStream size : 209 MiB (3%)Language : German
    TextID : 5424 (0x1530)-100Menu ID : 1 (0x1)Format : TeletextLanguage : German
    MenuID : 5420 (0x152C)Menu ID : 1 (0x1)Duration : 1h 5mnList : 5421 (0x152D) (AVC) / 5422 (0x152E) (MPEG Audio, German) / 5423 (0x152F) (MPEG Audio) / 5426 (0x1532) (AC-3, German) / 5424 (0x1530) ()Language : / German / / German

    Скриншоты

    Скачать .torrent

    Скачать торрент-файл бесплатно и на максимальной скорости!

    Как скачивать? · Что такое торрент? · Рейтинг и ограничения

    !ВНИМАНИЕ!
    Сайт не распространяет и не хранит электронные версии произведений, а занимается лишь лишь предоставлением доступа к создаваемому пользователями каталогу ссылок на торрент-файлы, которые содержат только списки хеш-сумм, убедительная просьба с жалобами обращаться напрямую к пользователю. Файлы для обмена на трекере предоставлены пользователями сайта, и администрация не несёт ответственности за их содержание. Просьба не заливать файлы, защищенные авторскими правами, а также файлы нелегального содержания!

    [Профиль] [ЛС]
    Показать сообщения:    
    Ответить на тему

    Текущее время: Сегодня, в 17:30

    Часовой пояс: GMT + 2



    Вы не можете начинать темы
    Вы не можете отвечать на сообщения
    Вы не можете редактировать свои сообщения
    Вы не можете удалять свои сообщения
    Вы не можете голосовать в опросах
    Вы не можете прикреплять файлы к сообщениям
    Вы не можете скачивать файлы