BitTorrentTracker PerecTracker.org
BitTorrentTracker PerecTracker.org
    
Регистрация  ·  Вход
 
 · 
Забыли пароль?

  • Сельско-лесное хозяйство / Nourin / No-Rin (Онума Син) [TV] [12 из 12] [без хардсаба] [RUS(ext), JAP+SUB] [2014 г., комедия, пародия, этти, BDRip] [720p]

    Ответить на тему
     
    Автор Сообщение

    Columb

    Создавать темы 13-Сен-2014 15:30

           

    [Цитировать]

    -Год выпуска: 2014
    Страна: Япония
    Жанр: комедия, пародия, этти
    Продолжительность: ТВ, 12 эп. по 24 мин.
    Выпуск: c 11.01.2014 по 29.03.2014-Перевод:

  • русские субтитры от HUNTA & Fratelli (полные/вспомогательные)
    редактор: Jenia aka Zub, переводчик/тайм-код/оформление: Сова
    -Режиссер: Онума Син
    Студия: Silver Link-Описание:
    Популярность молодежных идолов скоротечна: сегодня ты звезда, а завтра никто, уходить надо вовремя. Именно поэтому певица Юка Кусакабэ на пике карьеры оставила шоу-бизнес и покинула шумный Токио. 17-летней девушке надоели огни рампы, захотелось отдохнуть и почувствовать себя человеком. Подумав, она поступила в сельскохозяйственную школу Тамо под своим настоящим именем - Ринго Киносита. Ринго считала, что среди лесов и полей префектуры Гифу люди живут в гармонии с природой и далеки от городских соблазнов; в очках и без грима ее никто не узнает. В первом бывшая звездочка была права, а во втором крупно ошибалась!
    Конечно же, именно во втором «А» школы Тамо и в общежитии «Зеленополье», куда поселили героиню, жил-поживал Косаку Хата, истовый фанат Юки Кусакабэ. Когда парень увидел, что его богиня входит в класс и представляется чужим именем, он серьезно усомнился в своем здоровье, а когда разобрался, то понял, что это судьба. Пускай хмурая и язвительная Ринго не похожа на солнечную Юку – верному рыцарю все равно. У местных девчат, особенно у Минори Накадзавы, на этот счет было свое мнение, но мы-то с вами знаем! Общество простых и неиспорченных ребят – лучшее лекарство для издерганного сердца и мятущейся души. Случайностей в мире не бывает – и почаще посылайте любимым огурцы и баклажаны!
    © Hollow, World Art
    Дословный перевод термина No-rin - «Сельское и лесное хозяйство», это часть названия школы, где происходит действие сериала.
    Интересно, что обе фамилии главной героини тоже связаны с природой: псевдоним Кусакабэ значит «зеленая изгородь», а настоящее имя Киносита значит «подлесок».-Информационные ссылки: AniDB || World Art || MAL-Качество: BDRip
    Энкод: Winter - RG Pantheon
    Тип видео: без хардсаба, без линковки
    Формат: mkv
    Видео: x264 (Hi10p), 1280x720, ~3500 Kbps, 23.976 fps
    Аудио JAP: Vorbis, 48000Hz, ~256 Kbps, 2ch
    Аудио RUS 1-4: AC3, 48000Hz, ~192 Kbps, 2ch (внешними файлами)-

    Список озвучек в раздаче
  • двухголосая (муж./жен.) от GreyMoon & Tina (SHIZA)
    -sample

  • двухголосая (муж./жен.) от Holly & Симбад (AniDub)
    -sample

  • двухголосая (муж./жен.) от Lupin & Nuriko (Anilibria)
    -sample

  • трехголосая от Nazel & Freya & Mirona (Animedia)
    -sample

    Список эпизодов

    01. Chuno Love Story
    02. The King of Farmers
    03. Super Sub-Mom War: Training Stage
    04. The Smile You Showed Me
    05. Farming`s Five Top Four
    06. Full-Moe Alchemist: Bounty
    07. Sob Salad
    08. Cooking Granny
    09. School Swim Trunks
    10. Veggie Battle: Ultimate v. Supreme
    11. Cheerful Farming Village
    12. Everybody`s No-Rin

    Скриншоты


    Подробные тех. данные

    Общее
    Уникальный идентификатор : 200705334553973722309282349076304793071 (0x96FE70FE620855CCAD78034BABC28DEF)
    Полное имя : Z:\Anime\720p\Nourin [BD] [720p]\[Winter] Nourin 01 [BDrip 1280x720 x264 Vorbis].mkv
    Формат : Matroska
    Версия формата : Version 2
    Размер файла : 641 Мбайт
    Продолжительность : 23 м.
    Режим общего битрейта : Переменный
    Общий поток : 3780 Кбит/сек
    Дата кодирования : UTC 2014-08-20 16:51:41
    Программа кодирования : mkvmerge v2.9.8 ('C'est le bon') built on Aug 13 2009 12:49:06
    Библиотека кодирования : libebml v0.7.7 + libmatroska v0.8.1
    Видео
    Идентификатор : 1
    Формат : AVC
    Формат/Информация : Advanced Video Codec
    Профиль формата : High 10@L4.1
    Параметр CABAC формата : Да
    Параметр ReFrames формата : 9 кадров
    Идентификатор кодека : V_MPEG4/ISO/AVC
    Продолжительность : 23 м.
    Битрейт : 3449 Кбит/сек
    Ширина : 1280 пикселей
    Высота : 720 пикселей
    Соотношение сторон : 16:9
    Режим частоты кадров : Постоянный
    Частота кадров : 23,976 кадра/сек
    Цветовое пространство : YUV
    Субдискретизация насыщенности : 4:2:0
    Битовая глубина : 10 бит
    Тип развёртки : Прогрессивная
    Бит/(Пиксели*Кадры) : 0.156
    Размер потока : 585 Мбайт (91%)
    Библиотека кодирования : x264 core 132 r2309 3b1f1f7
    Настройки программы : cabac=1 / ref=9 / deblock=1:-2:-2 / analyse=0x3:0x133 / me=umh / subme=9 / psy=1 / psy_rd=0.90:0.00 / mixed_ref=1 / me_range=24 / chroma_me=1 / trellis=2 / 8x8dct=1 / cqm=0 / deadzone=21,11 / fast_pskip=1 / chroma_qp_offset=-2 / threads=12 / lookahead_threads=2 / sliced_threads=0 / nr=0 / decimate=0 / interlaced=0 / bluray_compat=0 / constrained_intra=0 / bframes=8 / b_pyramid=2 / b_adapt=2 / b_bias=0 / direct=1 / weightb=1 / open_gop=0 / weightp=2 / keyint=250 / keyint_min=23 / scenecut=40 / intra_refresh=0 / rc=crf / mbtree=0 / crf=15.7 / qcomp=0.70 / qpmin=9 / qpmax=40 / qpstep=4 / ip_ratio=1.40 / pb_ratio=1.30 / aq=1:0.90
    Default : Нет
    Forced : Нет
    Аудио
    Идентификатор : 2
    Формат : Vorbis
    Параметр Floor формата : 1
    Идентификатор кодека : A_VORBIS
    Продолжительность : 23 м.
    Вид битрейта : Переменный
    Битрейт : 256 Кбит/сек
    Каналы : 2 канала
    Частота : 48,0 КГц
    Метод сжатия : С потерями
    Размер потока : 43,4 Мбайт (7%)
    Библиотека кодирования : libVorbis (Schaufenugget) (20101101 (Schaufenugget))
    Язык : Japanese
    Default : Да
    Forced : Нет
    -
    Скачать .torrent

    Скачать торрент-файл бесплатно и на максимальной скорости!

    Как скачивать? · Что такое торрент? · Рейтинг и ограничения

    !ВНИМАНИЕ!
    Сайт не распространяет и не хранит электронные версии произведений, а занимается лишь лишь предоставлением доступа к создаваемому пользователями каталогу ссылок на торрент-файлы, которые содержат только списки хеш-сумм, убедительная просьба с жалобами обращаться напрямую к пользователю. Файлы для обмена на трекере предоставлены пользователями сайта, и администрация не несёт ответственности за их содержание. Просьба не заливать файлы, защищенные авторскими правами, а также файлы нелегального содержания!

  • [Профиль] [ЛС]
    Показать сообщения:    
    Ответить на тему

    Текущее время: Сегодня, в 00:07

    Часовой пояс: GMT + 2



    Вы не можете начинать темы
    Вы не можете отвечать на сообщения
    Вы не можете редактировать свои сообщения
    Вы не можете удалять свои сообщения
    Вы не можете голосовать в опросах
    Вы не можете прикреплять файлы к сообщениям
    Вы не можете скачивать файлы