Register  ·  Log in
Forgot password?

  • Эпатаж / Shock value (Дуглас Рат / Douglas Rath) [2014, США, триллер, ужасы, чёрная комедия, WEB-DLRip] MVO (Колобок)

    Reply to topic
    Author Message


    Post 12-Sep-2014 13:49



    Эпатаж / Shock value
    Страна: США
    Жанр: триллер, ужасы, чёрная комедия
    Год выпуска: 2014
    Продолжительность: 01:29:34
    Перевод: Любительский (многоголосый закадровый) Колобок
    Cубтитры: нет
    Оригинальная аудиодорожка: нет
    Режиссер: Дуглас Рат / Douglas Rath
    В ролях: Зак Хадсон, Энтони Браво, Жанелль Одэ, Мишель Кэмпбелл, Уилл Брандт, Малкольм МакДауэлл, Рик Шапиро, Стивен Дж. Оливер, Шоун Вудс, Джо Фаркас
    Описание: Не слишком успешный режиссёр фильмов ужасов, став случайным свидетелем убийств голливудского маньяка, решает сделать его звездой своего нового фильма. Результат выходит несколько неожиданным...
    Доп. информация: Перевод: Antonio
    Роли озвучивали: Antonio, den904, Александр Харченко, DeadSno & Ворон

    Качество видео: WEB-DLRip
    Формат видео: AVI
    Видео: DivX 5 720x304 23.98fps 1886Kbps
    Аудио: Dolby AC3 48000Hz 6 Audio Channel 384Kbps


    Complete name : D:\TORRENTS\Shock.value.avi
    Format : AVI
    Format/Info : Audio Video Interleave
    File size : 1.43 GiB
    Duration : 1h 29mn
    Overall bit rate : 2 279 Kbps
    ID : 0
    Format : MPEG-4 Visual
    Format profile : Advanced Simple@L5
    Format settings, BVOP : 2
    Format settings, QPel : No
    Format settings, GMC : No warppoints
    Format settings, Matrix : Default (H.263)
    Codec ID : DX50
    Codec ID/Hint : DivX 5
    Duration : 1h 29mn
    Bit rate : 1 886 Kbps
    Width : 720 pixels
    Height : 304 pixels
    Display aspect ratio : 2.35:1
    Frame rate : 23.976 fps
    Color space : YUV
    Chroma subsampling : 4:2:0
    Bit depth : 8 bits
    Scan type : Progressive
    Compression mode : Lossy
    Bits/(Pixel*Frame) : 0.359
    Stream size : 1.18 GiB (83%)
    Writing library : XviD 64
    ID : 1
    Format : AC-3
    Format/Info : Audio Coding 3
    Mode extension : CM (complete main)
    Format settings, Endianness : Big
    Codec ID : 2000
    Duration : 1h 29mn
    Source duration : 1h 29mn
    Bit rate mode : Constant
    Bit rate : 384 Kbps
    Channel(s) : 6 channels
    Channel positions : Front: L C R, Side: L R, LFE
    Sampling rate : 48.0 KHz
    Bit depth : 16 bits
    Compression mode : Lossy
    Stream size : 246 MiB (17%)
    Alignment : Aligned on interleaves
    Interleave, duration : 42 ms (1.00 video frame)

    Скриншот c названием фильма


    Download .torrent

    Download free and at maximum speed!

    How to Download? · What is a torrent? · Ratings and Limitations

    The site does not extend and does not store electronic(digital) versions of products, and only gives access to a reference catalogue created by users on torrent-files which contain only lists of the hash-sums, the earnest entreaty, with complaints(abuse) to access directly to the user. Files for an exchange on tracker are given by users of a site, and the administration does not bear the responsibility for their maintenance. The request to not fill in the files protected by copyrights, and also files of the illegal maintenance!

    [Profile] [PM]
    Display posts from previous:    
    Reply to topic

    The time now is: Today 11:53

    All times are GMT + 3 Hours

    You cannot post new topics in this forum
    You cannot reply to topics in this forum
    You cannot edit your posts in this forum
    You cannot delete your posts in this forum
    You cannot vote in polls in this forum
    You cannot attach files in this forum
    You cannot download files in this forum