BitTorrentTracker PerecTracker.org
BitTorrentTracker PerecTracker.org
    
Регистрация  ·  Вход
 
 · 
Забыли пароль?

  • Эпатаж / Shock value (Дуглас Рат / Douglas Rath) [2014, США, триллер, ужасы, чёрная комедия, WEB-DLRip] MVO (Колобок)

    Ответить на тему
     
    Автор Сообщение

    Columb

    Создавать темы 12-Сен-2014 12:49

           

    [Цитировать]

    Эпатаж / Shock value
    Страна: США
    Жанр: триллер, ужасы, чёрная комедия
    Год выпуска: 2014
    Продолжительность: 01:29:34
    Перевод: Любительский (многоголосый закадровый) Колобок
    Cубтитры: нет
    Оригинальная аудиодорожка: нет
    Режиссер: Дуглас Рат / Douglas Rath
    В ролях: Зак Хадсон, Энтони Браво, Жанелль Одэ, Мишель Кэмпбелл, Уилл Брандт, Малкольм МакДауэлл, Рик Шапиро, Стивен Дж. Оливер, Шоун Вудс, Джо Фаркас
    Описание: Не слишком успешный режиссёр фильмов ужасов, став случайным свидетелем убийств голливудского маньяка, решает сделать его звездой своего нового фильма. Результат выходит несколько неожиданным...
    Доп. информация: Перевод: Antonio
    Роли озвучивали: Antonio, den904, Александр Харченко, DeadSno & Ворон

    Сэмпл: https://www.sendspace.com/file/eoifsm
    Качество видео: WEB-DLRip
    Формат видео: AVI
    Видео: DivX 5 720x304 23.98fps 1886Kbps
    Аудио: Dolby AC3 48000Hz 6 Audio Channel 384Kbps

    MediaInfo

    General
    Complete name : D:\TORRENTS\Shock.value.avi
    Format : AVI
    Format/Info : Audio Video Interleave
    File size : 1.43 GiB
    Duration : 1h 29mn
    Overall bit rate : 2 279 Kbps
    Video
    ID : 0
    Format : MPEG-4 Visual
    Format profile : Advanced Simple@L5
    Format settings, BVOP : 2
    Format settings, QPel : No
    Format settings, GMC : No warppoints
    Format settings, Matrix : Default (H.263)
    Codec ID : DX50
    Codec ID/Hint : DivX 5
    Duration : 1h 29mn
    Bit rate : 1 886 Kbps
    Width : 720 pixels
    Height : 304 pixels
    Display aspect ratio : 2.35:1
    Frame rate : 23.976 fps
    Color space : YUV
    Chroma subsampling : 4:2:0
    Bit depth : 8 bits
    Scan type : Progressive
    Compression mode : Lossy
    Bits/(Pixel*Frame) : 0.359
    Stream size : 1.18 GiB (83%)
    Writing library : XviD 64
    Audio
    ID : 1
    Format : AC-3
    Format/Info : Audio Coding 3
    Mode extension : CM (complete main)
    Format settings, Endianness : Big
    Codec ID : 2000
    Duration : 1h 29mn
    Source duration : 1h 29mn
    Bit rate mode : Constant
    Bit rate : 384 Kbps
    Channel(s) : 6 channels
    Channel positions : Front: L C R, Side: L R, LFE
    Sampling rate : 48.0 KHz
    Bit depth : 16 bits
    Compression mode : Lossy
    Stream size : 246 MiB (17%)
    Alignment : Aligned on interleaves
    Interleave, duration : 42 ms (1.00 video frame)

    Скриншот c названием фильма

    Скриншоты

    Скачать .torrent

    Скачать торрент-файл бесплатно и на максимальной скорости!

    Как скачивать? · Что такое торрент? · Рейтинг и ограничения

    !ВНИМАНИЕ!
    Сайт не распространяет и не хранит электронные версии произведений, а занимается лишь лишь предоставлением доступа к создаваемому пользователями каталогу ссылок на торрент-файлы, которые содержат только списки хеш-сумм, убедительная просьба с жалобами обращаться напрямую к пользователю. Файлы для обмена на трекере предоставлены пользователями сайта, и администрация не несёт ответственности за их содержание. Просьба не заливать файлы, защищенные авторскими правами, а также файлы нелегального содержания!

    [Профиль] [ЛС]
    Показать сообщения:    
    Ответить на тему

    Текущее время: Сегодня, в 20:54

    Часовой пояс: GMT + 2



    Вы не можете начинать темы
    Вы не можете отвечать на сообщения
    Вы не можете редактировать свои сообщения
    Вы не можете удалять свои сообщения
    Вы не можете голосовать в опросах
    Вы не можете прикреплять файлы к сообщениям
    Вы не можете скачивать файлы