BitTorrentTracker PerecTracker.org
BitTorrentTracker PerecTracker.org
    
Регистрация  ·  Вход
 
 · 
Забыли пароль?

  • Инспектор Клот / A Touch of Cloth / Сезон: 3 / Серии: 1-2 из 2 (Джим О’Хенлон / Jim O'Hanlon) [2014, комедия, детектив, пародия, HDTVRip] MVO (ViruseProject)

    Ответить на тему
     
    Автор Сообщение

    Columb

    Создавать темы 10-Сен-2014 19:27

           

    [Цитировать]

    Инспектор Клот / A Touch of Cloth
    Год выпуска: 2014
    Страна: Великобритания
    Жанр: комедия, детектив, пародия
    Продолжительность: 00:45:00
    Перевод: Профессиональный (многоголосый закадровый) ViruseProject
    Русские субтитры: нет
    Режиссёр: Джим О’Хенлон / Jim O'Hanlon
    В ролях: Джон Ханна (Мумия 1-3, Спартак: Боги арены, Спартак: Кровь и песок), Карен Гиллан (Доктор Кто, Стражи Галактики), Сюранна Джоунс, Адриан Бауэр, Навин Чоудхри, Кейт Флитвуд, Джулиан Райнд-Татт, Рэкуэл Кэссиди, Тео Барклем-Биггз и др.
    Описание: Джеку Клоту предстоит новое головокружительное расследование: в местном лесу найден труп человека, как две капли воды похожего на детектива-инспектора. Какие мрачные секреты прошлого скрываются за этой таинственной трагедией и какое отношение к этому имеет загадочная незнакомка Роуан Ива?



    Озвучено при поддержке SEASONVAR
    смотреть ТРЕЙЛЕР сериала на youtube
    смотреть СЕМПЛ озвучки на rutube
    скачать СЕМПЛ с multi-up
    Качество: HDTVRip
    Формат: MKV / AVI
    Видео кодек: AVC / XviD
    Аудио кодек: ААС / MP3
    Видео: 704x388 (16:9), 25 fps, AVC, 1 218 Kbps, 8 bits / 640x360 (1.78:1), 25 fps, XviD build 50 ~696 kbps avg, 0.12 bit/pixel
    Аудио: 48 kHz, AAC, 2 ch / 48 kHz, MPEG Layer 3, 2 ch, ~192.00 kbps avg

    MediaInfo 1 серия

    General
    Unique ID : 197487184460374751542988609145338592532 (0x9492A5F1A5B98E1F99F63EEA34B3FD14)
    Complete name : D:\ОЗВУЧКА\СЕРИАЛЫ\A.Touch.of.Cloth.S03.ViruseProject\A.Touch.of.Cloth.S03.ViruseProject\A.Touch.of.Cloth.S03E01.ViruseProject.mkv
    Format : Matroska
    Format version : Version 4 / Version 2
    File size : 384 MiB
    Duration : 44mn 4s
    Overall bit rate : 1 218 Kbps
    Encoded date : UTC 2014-08-28 05:02:20
    Writing application : mkvmerge v6.5.0 ('Isn't she lovely') built on Oct 20 2013 12:50:05
    Writing library : libebml v1.3.0 + libmatroska v1.4.1
    Video
    ID : 1
    Format : AVC
    Format/Info : Advanced Video Codec
    Format profile : High@L3.1
    Format settings, CABAC : Yes
    Format settings, ReFrames : 5 frames
    Codec ID : V_MPEG4/ISO/AVC
    Duration : 44mn 4s
    Width : 704 pixels
    Height : 388 pixels
    Display aspect ratio : 16:9
    Frame rate mode : Constant
    Frame rate : 25.000 fps
    Color space : YUV
    Chroma subsampling : 4:2:0
    Bit depth : 8 bits
    Scan type : Progressive
    Writing library : x264 core 142 r2453 ea0ca51
    Encoding settings : cabac=1 / ref=5 / deblock=1:0:0 / analyse=0x3:0x113 / me=umh / subme=8 / psy=1 / psy_rd=1.00:0.00 / mixed_ref=1 / me_range=16 / chroma_me=1 / trellis=1 / 8x8dct=1 / cqm=0 / deadzone=21,11 / fast_pskip=1 / chroma_qp_offset=-2 / threads=12 / lookahead_threads=2 / sliced_threads=0 / nr=0 / decimate=1 / interlaced=0 / bluray_compat=0 / constrained_intra=0 / bframes=3 / b_pyramid=2 / b_adapt=2 / b_bias=0 / direct=3 / weightb=1 / open_gop=0 / weightp=2 / keyint=250 / keyint_min=25 / scenecut=40 / intra_refresh=0 / rc_lookahead=50 / rc=crf / mbtree=1 / crf=19.0 / qcomp=0.60 / qpmin=0 / qpmax=69 / qpstep=4 / ip_ratio=1.40 / aq=1:1.00
    Default : Yes
    Forced : No
    Matrix coefficients : BT.709
    Audio
    ID : 2
    Format : AAC
    Format/Info : Advanced Audio Codec
    Format profile : LC
    Codec ID : A_AAC
    Duration : 44mn 4s
    Channel(s) : 2 channels
    Channel positions : Front: L R
    Sampling rate : 48.0 KHz
    Compression mode : Lossy
    Default : Yes
    Forced : No

    MediaInfo 2 серия

    General
    Complete name : E:\ОЗВУЧКА\СЕРИАЛЫ\A.Touch.of.Cloth.S03.ViruseProject\A.Touch.of.Cloth.S03.ViruseProject\A.Touch.of.Cloth.S03E02.ViruseProject.avi
    Format : AVI
    Format/Info : Audio Video Interleave
    File size : 289 MiB
    Duration : 44mn 57s
    Overall bit rate : 898 Kbps
    Writing application : VirtualDubMod 1.5.10.2 (build 2540/release)
    Writing library : VirtualDubMod build 2540/release
    Video
    ID : 0
    Format : MPEG-4 Visual
    Format profile : Advanced Simple@L5
    Format settings, BVOP : 2
    Format settings, QPel : No
    Format settings, GMC : No warppoints
    Format settings, Matrix : Default (H.263)
    Codec ID : XVID
    Codec ID/Hint : XviD
    Duration : 44mn 57s
    Bit rate : 696 Kbps
    Width : 640 pixels
    Height : 360 pixels
    Display aspect ratio : 16:9
    Frame rate : 25.000 fps
    Color space : YUV
    Chroma subsampling : 4:2:0
    Bit depth : 8 bits
    Scan type : Progressive
    Compression mode : Lossy
    Bits/(Pixel*Frame) : 0.121
    Stream size : 224 MiB (78%)
    Writing library : XviD 1.2.1 (UTC 2008-12-04)
    Audio
    ID : 1
    Format : MPEG Audio
    Format version : Version 1
    Format profile : Layer 3
    Codec ID : 55
    Codec ID/Hint : MP3
    Duration : 44mn 57s
    Bit rate mode : Constant
    Bit rate : 192 Kbps
    Channel(s) : 2 channels
    Sampling rate : 48.0 KHz
    Compression mode : Lossy
    Stream size : 61.7 MiB (21%)
    Alignment : Split accross interleaves
    Interleave, duration : 40 ms (1.00 video frame)
    Interleave, preload duration : 500 ms

    Скриншоты 1 серия

    Скриншоты 2 серия

    ВНИМАНИЕ!!!
    Добавлена 2-я ЗАКЛЮЧИТЕЛЬНАЯ серия 3-го сезона;
    Перезалейте торрентфайл;
    Не забываем благодарить и писать отзывы.
    Скачать .torrent

    Скачать торрент-файл бесплатно и на максимальной скорости!

    Как скачивать? · Что такое торрент? · Рейтинг и ограничения

    !ВНИМАНИЕ!
    Сайт не распространяет и не хранит электронные версии произведений, а занимается лишь лишь предоставлением доступа к создаваемому пользователями каталогу ссылок на торрент-файлы, которые содержат только списки хеш-сумм, убедительная просьба с жалобами обращаться напрямую к пользователю. Файлы для обмена на трекере предоставлены пользователями сайта, и администрация не несёт ответственности за их содержание. Просьба не заливать файлы, защищенные авторскими правами, а также файлы нелегального содержания!

    [Профиль] [ЛС]
    Показать сообщения:    
    Ответить на тему

    Текущее время: Сегодня, в 11:07

    Часовой пояс: GMT + 2



    Вы не можете начинать темы
    Вы не можете отвечать на сообщения
    Вы не можете редактировать свои сообщения
    Вы не можете удалять свои сообщения
    Вы не можете голосовать в опросах
    Вы не можете прикреплять файлы к сообщениям
    Вы не можете скачивать файлы