BitTorrentTracker PerecTracker.org
BitTorrentTracker PerecTracker.org
    
Регистрация  ·  Вход
 
 · 
Забыли пароль?

  • Остатки / Оставленные / The Leftovers / Сезон: 1 / Серии: 1-10 из 10 (Мими Ледер, Питер Берг, Мишель Максвелл МакЛарен) [2014, фэнтези, драма, детектив, HDTVRip] MVO (Amedia)

    Ответить на тему
     
    Автор Сообщение

    Columb

    Создавать темы 10-Сен-2014 19:19

           

    [Цитировать]

    Остатки | Оставленные | The Leftovers-Год выпуска: 2014
    Страна: США
    Жанр: фэнтези, драма, детектив
    Продолжительность: ~ 00:55:00-Перевод: Профессиональный (многоголосый закадровый) | Amedia
    Режиссёр: Мими Ледер / Mimi Leder, Питер Берг / Peter Berg, Мишель Максвелл МакЛарен / Michelle Maxw-В ролях: Фрэнк Хартс (Dennis Luckey), Майкл Гэстон (Dean), Джастин Теру (Kevin Garvey), Кэрри Кун (Nora Durst), Лив Тайлер (Meg Abbott), Маргарет Куэлли (Jill Garvey), Энни Цянь (Christine), Эми Бреннеман (Laurie Garvey), Кристофер Экклстон (Matt Jamison), Энн Дауд (Patti Levin), Аманда Уоррен (Lucy Warburton), Крис Зилка (Tom Garvey)-Описание: Действие разворачивается вокруг группы оставшихся людей в пригородной общине городка Мейплтон. Они должны начать заново строить свои жизни после внезапного и загадочного исчезновения более ста человек.--| Альтернативные раздачи | Сэмпл 1 | Сэмпл 2 |-Качество: HDTVRip
    Формат: AVI
    Видео кодек: XviD
    Аудио кодек: MP3-Видео: 720x400 (16:9), 25.000 fps, ~1300 kbps, 0.178 bit/pixel
    Аудио: 48 kHz, MP3, 2 ch, ~128 kbps - Rus
    Субтитры: русский хардсаб на тексты и надписи (вшиты в видеоряд самой Амедией для русификации оного)-

    MediaInfo

    Общее
    Полное имя : X:\ATorrent\The.Leftovers.(S01).Amedia\The.Leftovers.S01E01.XviD.Amedia.[qqss44].avi
    Формат : AVI
    Формат/Информация : Audio Video Interleave
    Размер файла : 698 Мбайт
    Продолжительность : 1 ч. 8 м.
    Общий поток : 1419 Кбит/сек
    Программа кодирования : VirtualDubMod 1.5.10.3 | www.virtualdub-fr.org || (build 2550/release)
    Библиотека кодирования : VirtualDubMod build 2550/release
    Видео
    Идентификатор : 0
    Формат : MPEG-4 Visual
    Профиль формата : Advanced Simple@L5
    Параметр BVOP формата : Да
    Параметр QPel формата : Нет
    Параметр GMC формата : Без точки перехода
    Параметр матрицы формата : Default (H.263)
    Идентификатор кодека : XVID
    Идентификатор кодека/Подсказка : XviD
    Продолжительность : 1 ч. 8 м.
    Битрейт : 1282 Кбит/сек
    Ширина : 720 пикселей
    Высота : 400 пикселей
    Соотношение сторон : 16:9
    Частота кадров : 25,000 кадров/сек
    Цветовое пространство : YUV
    Субдискретизация насыщенности : 4:2:0
    Битовая глубина : 8 бит
    Тип развёртки : Прогрессивная
    Метод сжатия : С потерями
    Бит/(Пиксели*Кадры) : 0.178
    Размер потока : 630 Мбайт (90%)
    Библиотека кодирования : XviD 73
    Аудио
    Идентификатор : 1
    Формат : MPEG Audio
    Версия формата : Version 1
    Профиль формата : Layer 3
    Идентификатор кодека : 55
    Идентификатор кодека/Подсказка : MP3
    Продолжительность : 1 ч. 8 м.
    Вид битрейта : Постоянный
    Битрейт : 128 Кбит/сек
    Каналы : 2 канала
    Частота : 48,0 КГц
    Метод сжатия : С потерями
    Размер потока : 63,0 Мбайт (9%)
    Выравнивание : Соединение по промежуткам
    Продолжительность промежутка : 40 мс. (1,00 видеокадр)
    Время предзагрузки промежутка : 504 мс.
    Библиотека кодирования : LAME3.99r
    Настройки программы : -m s -V 4 -q 2 -lowpass 17 -b 128

    Скриншоты

    Раздача ведется путем добавления новых серий

    Когда раздача ведётся путём добавления новых серий, при каждом добавлении создётся новый торрент. Чтобы начать докачку новой серии, пользователям необходимо сделать следующее:
    (1) остановить скачивание,
    (2) удалить старый торрент у себя из клиента (старые серии удалять не надо),
    (3) скачать новый торрент и запустить его у себя в клиенте вместо старого, при этом указать клиенту путь в старую папку, куда и должно происходить скачивание новых серий.
    Ваш клиент при этом должен произвести хеширование (проверку) старой папки (если не производит сам - помогите ему сделать это), и будет докачивать только те серии, которых у вас ещё нет. Старые серии при этом не удаляются, а продолжают раздаваться!
    Eсли вы уже удалили старые серии, то предотвратить повторную закачку старых серий можно, отжав галочку в соответсвующих местах при запуске нового торрента. По возможности, желательно не удалять старые серии как можно дольше, чтобы релизёр не столько продолжал раздавать старые серии, а смог сконцентрироваться на новых.
    -
    Скачать .torrent

    Скачать торрент-файл бесплатно и на максимальной скорости!

    Как скачивать? · Что такое торрент? · Рейтинг и ограничения

    !ВНИМАНИЕ!
    Сайт не распространяет и не хранит электронные версии произведений, а занимается лишь лишь предоставлением доступа к создаваемому пользователями каталогу ссылок на торрент-файлы, которые содержат только списки хеш-сумм, убедительная просьба с жалобами обращаться напрямую к пользователю. Файлы для обмена на трекере предоставлены пользователями сайта, и администрация не несёт ответственности за их содержание. Просьба не заливать файлы, защищенные авторскими правами, а также файлы нелегального содержания!

    [Профиль] [ЛС]
    Показать сообщения:    
    Ответить на тему

    Текущее время: Сегодня, в 18:22

    Часовой пояс: GMT + 2



    Вы не можете начинать темы
    Вы не можете отвечать на сообщения
    Вы не можете редактировать свои сообщения
    Вы не можете удалять свои сообщения
    Вы не можете голосовать в опросах
    Вы не можете прикреплять файлы к сообщениям
    Вы не можете скачивать файлы