BitTorrentTracker PerecTracker.org
BitTorrentTracker PerecTracker.org
    
Регистрация  ·  Вход
 
 · 
Забыли пароль?

  • Бангалорские дни / Bangalore Days (Анджали Менон / Anjali Menon) [2014, Индия, мелодрама, DVDRip] Sub Rus

    Ответить на тему
     
    Автор Сообщение

    Columb

    Создавать темы 10-Сен-2014 19:02

           

    [Цитировать]

    Бангалорские дни / Bangalore Days
    Страна: Индия
    Жанр: мелодрама
    Год выпуска: 2014
    Продолжительность: 02:51:16
    Перевод: Субтитры
    Cубтитры: русские
    Оригинальная аудиодорожка: малаялам
    Перевод субтитров: Wita
    Режиссер: Анджали Менон / Anjali Menon
    В ролях: Дулкар Салман (Арджун), Назрия Назим (Дивья / Кунджу), Нивин Поли (Куттан), Фахад Фазил (Дас), Парвати (Сара), Иша Талвар (Менакши) и Нитья Менен (Наташа)
    Описание: Их трое – Куттан, Аджу и Дивья. Они не просто связаны двоюродным родством. По сути – это самые близкие друг другу люди, которые с детства делили друг с другом все, что им доставалось и хорошего, и плохого. В детстве у них был один мир на троих. А потом началась взрослая жизнь, и каждому нужно было найти в ней свое место: Дивью родители спешно спихнули замуж за, как им казалось, подходящего мужчину. Куттан под давлением матери стал программистом. А Аджу… родственники махнули на него рукой, как на паршивую овцу в семье – если уж родному отцу и матери на него наплевать, кому надо за него переживать? Но тем и хороша взрослая жизнь, что дает возможность самим ею управлять и воплотить даже самые дерзкие детские мечты. А у троицы кузенов одна заветная мечта – жить в Бангалоре.
    Дополнительно. Для тех, кто будет брать релиз на другие ресурсы, убедительная просьба: сохраняйте оформление до буквы.
    И настоятельно прошу самых наглых не вырезать имя переводчиков из субтитров.
    Реализация рипа субтитрами через интернет-магазины не предусмотрена

    Сэмпл: http://multi-up.com/998068
    Качество видео: DVDRip
    Формат видео: AVI
    Видео: XviD, 720 х 304, 2.35:1, 23.976 fps, 1 429 Kbps
    Аудио: AC-3, 48.0 kHz, 384 Kbps, 6 channels, Original
    Формат субтитров: hardsub (неотключаемые)

    MediaInfo

    Bangalorskie.dni.2014.DVDRip.XviD.tw.avi
    Format : AVI
    Format/Info : Audio Video Interleave
    Format profile : OpenDML
    File size : 2.18 GiB
    Duration : 2h 51mn
    Overall bit rate : 1 825 Kbps
    Director : TmG
    Writing application : VirtualDubMod 1.5.10.2 (build 2542/release)
    Writing library : VirtualDubMod build 2542/release
    Video #0
    ID : 0
    Format : MPEG-4 Visual
    Format profile : Advanced Simple@L5
    Format settings, BVOP : 2
    Format settings, QPel : No
    Format settings, GMC : No warppoints
    Format settings, Matrix : Default (H.263)
    Muxing mode : Packed bitstream
    Codec ID : XVID
    Codec ID/Hint : XviD
    Duration : 2h 51mn
    Bit rate : 1 429 Kbps
    Width : 720 pixels
    Height : 304 pixels
    Display aspect ratio : 2.35:1
    Frame rate : 23.976 fps
    Color space : YUV
    Chroma subsampling : 4:2:0
    Bit depth : 8 bits
    Scan type : Progressive
    Compression mode : Lossy
    Bits/(Pixel*Frame) : 0.272
    Stream size : 1.71 GiB (78%)
    Writing library : XviD 1.2.1 (UTC 2008-12-04)
    Audio #1
    ID : 1
    Format : AC-3
    Format/Info : Audio Coding 3
    Mode extension : CM (complete main)
    Codec ID : 2000
    Duration : 2h 51mn
    Bit rate mode : Constant
    Bit rate : 384 Kbps
    Channel(s) : 6 channels
    Channel positions : Front: L C R, Side: L R, LFE
    Sampling rate : 48.0 KHz
    Bit depth : 16 bits
    Compression mode : Lossy
    Stream size : 470 MiB (21%)
    Alignment : Split accross interleaves
    Interleave, duration : 42 ms (1.00 video frame)
    Interleave, preload duration : 500 ms

    Скриншот c названием фильма

    Скриншоты





    Скачать .torrent

    Скачать торрент-файл бесплатно и на максимальной скорости!

    Как скачивать? · Что такое торрент? · Рейтинг и ограничения

    !ВНИМАНИЕ!
    Сайт не распространяет и не хранит электронные версии произведений, а занимается лишь лишь предоставлением доступа к создаваемому пользователями каталогу ссылок на торрент-файлы, которые содержат только списки хеш-сумм, убедительная просьба с жалобами обращаться напрямую к пользователю. Файлы для обмена на трекере предоставлены пользователями сайта, и администрация не несёт ответственности за их содержание. Просьба не заливать файлы, защищенные авторскими правами, а также файлы нелегального содержания!

    [Профиль] [ЛС]
    Показать сообщения:    
    Ответить на тему

    Текущее время: Сегодня, в 16:32

    Часовой пояс: GMT + 2



    Вы не можете начинать темы
    Вы не можете отвечать на сообщения
    Вы не можете редактировать свои сообщения
    Вы не можете удалять свои сообщения
    Вы не можете голосовать в опросах
    Вы не можете прикреплять файлы к сообщениям
    Вы не можете скачивать файлы