Register  ·  Log in
Forgot password?

  • Кровавый лагерь 4 / Кровавый лагерь: Первая резня / Camp Blood: First Slaughter (Марк Полонья / Mark Polonia) [2014, США, трэш, ужасы, слэшер, мокьюментари, DVDRip] VO (Хэм)

    Reply to topic
    Author Message


    Post 05-Sep-2014 22:34



    Кровавый лагерь 4 / Кровавый лагерь: Первая резня / Camp Blood: First Slaughter
    Страна: США
    Жанр: трэш, ужасы, слэшер, мокьюментари
    Год выпуска: 2014
    Продолжительность: 1:13:16
    Перевод: Одноголосый закадровый (Хэм)
    Cубтитры: нет
    Режиссер: Марк Полонья / Mark Polonia
    В ролях: Келси Кауфманн, Хьюстон Бэйкер, Синди Уиллер, Стив Диаспарра
    Описание: Кровавый лагерь и блуждающий по нему клоун-маньяк перешли в разряд известных страшилок. В рамках курса "городских легенд" студенческой компании поручают развенчать или подтвердить существование клоуна, для чего они едут в тамошние леса и берут с собой видеокамеры. Трупы пропавших студентов находят через три месяца. А заодно находят и сделанные ими записи.
    Доп. информация: /
    Качество видео: DVDRip
    Формат видео: AVI
    Видео: XVID, 720x408, 16:9, 29,970 fps, 1905 kbps
    Аудио: MP3, 48 kHz, 128 kbps, 2.0


    Complete name : D:\Movs\Camp.Blood.4.2014.Rus.avi
    Format : AVI
    Format/Info : Audio Video Interleave
    File size : 1.05 GiB
    Duration : 1h 13mn
    Overall bit rate : 2 045 Kbps
    Writing application : VirtualDubMod | || (build 2550/release)
    Writing library : VirtualDub build 32817/release
    ID : 0
    Format : MPEG-4 Visual
    Format profile : Advanced Simple@L5
    Format settings, BVOP : 2
    Format settings, QPel : No
    Format settings, GMC : No warppoints
    Format settings, Matrix : Default (H.263)
    Codec ID : XVID
    Codec ID/Hint : XviD
    Duration : 1h 13mn
    Bit rate : 1 905 Kbps
    Width : 720 pixels
    Height : 408 pixels
    Display aspect ratio : 16:9
    Frame rate : 29.970 fps
    Color space : YUV
    Chroma subsampling : 4:2:0
    Bit depth : 8 bits
    Scan type : Progressive
    Compression mode : Lossy
    Bits/(Pixel*Frame) : 0.216
    Stream size : 998 MiB (93%)
    Writing library : XviD 1.2.1 (UTC 2008-12-04)
    ID : 1
    Format : MPEG Audio
    Format version : Version 1
    Format profile : Layer 3
    Mode : Joint stereo
    Mode extension : MS Stereo
    Codec ID : 55
    Codec ID/Hint : MP3
    Duration : 1h 13mn
    Bit rate mode : Constant
    Bit rate : 128 Kbps
    Channel(s) : 2 channels
    Sampling rate : 48.0 KHz
    Compression mode : Lossy
    Stream size : 67.1 MiB (6%)
    Alignment : Split accross interleaves
    Interleave, duration : 33 ms (1.00 video frame)
    Interleave, preload duration : 500 ms

    Скриншот c названием фильма


    Download .torrent

    Download free and at maximum speed!

    How to Download? · What is a torrent? · Ratings and Limitations

    The site does not extend and does not store electronic(digital) versions of products, and only gives access to a reference catalogue created by users on torrent-files which contain only lists of the hash-sums, the earnest entreaty, with complaints(abuse) to access directly to the user. Files for an exchange on tracker are given by users of a site, and the administration does not bear the responsibility for their maintenance. The request to not fill in the files protected by copyrights, and also files of the illegal maintenance!

    [Profile] [PM]
    Display posts from previous:    
    Reply to topic

    The time now is: Today 02:52

    All times are GMT + 3 Hours

    You cannot post new topics in this forum
    You cannot reply to topics in this forum
    You cannot edit your posts in this forum
    You cannot delete your posts in this forum
    You cannot vote in polls in this forum
    You cannot attach files in this forum
    You cannot download files in this forum