Register  ·  Log in
Forgot password?

  • Апостолы / The Apostles / Xian Lu Wu Jin (Джо Чинь / Joe Chien) [2014, Китай, фантастика, WEB-DL] VO (Виктор Береговых)

    Reply to topic
    Author Message


    Post 05-Sep-2014 22:14



    Апостолы / The Apostles / Xian Lu Wu Jin
    Страна: Китай
    Жанр: фантастика
    Год выпуска: 2014
    Продолжительность: 01:26:57
    Перевод: Одноголосый закадровый (Виктор Береговых)
    Cубтитры: китайские и английские (вшитые)
    Режиссер: Джо Чинь / Joe Chien
    В ролях: Джози Хо, Ся Фань, Лам Суэт, Лам Чи Чун, Тай По, Ангус Си
    Описание: Несколько лет назад Лу Юн (Джози Хо) попала в аварию и с тех пор страдает периодическими провалами в памяти. Однажды она узнает, что ее муж погиб в авиакатастрофе, а спустя какое-то время на нее выходит мужчина по имени Хан Бин (Ся Фань), утверждающий, что у его жены, которая также была на том самолете, был роман с мужем Лу Юн. Соратники по несчастью решают съездить в небольшой городок, где встречались их супруги, но по пути с ними начинают происходить загадочные вещи. (Акира)
    Доп. информация: Скорость с которой раздаю,вся что есть.
    Качество видео: WEB-DL
    Формат видео: MKV
    Видео: AVC, 1920x1080 (16:9), 25.000 fps, 3731 kbps avg
    Аудио: AC3, 48.0 KHz, 192 Kbps, 2 channels


    Format : Matroska
    File size : 2.43 GiB
    Duration : 1h 26mn
    Overall bit rate : 4 003 Kbps
    Encoded date : UTC 2014-09-04 10:59:33
    Writing application : mkvmerge v5.7.0 ('The Whirlwind') built on Jul 29 2012 15:12:35
    Writing library : libebml v1.2.3 + libmatroska v1.3.0
    ID : 1
    Format : AVC
    Format/Info : Advanced Video Codec
    Format profile : Main@L4.0
    Format settings, CABAC : Yes
    Format settings, ReFrames : 2 frames
    Muxing mode : Container profile=Unknown@4.0
    Codec ID : V_MPEG4/ISO/AVC
    Duration : 1h 26mn
    Bit rate : 3 731 Kbps
    Width : 1 920 pixels
    Height : 1 080 pixels
    Display aspect ratio : 16:9
    Frame rate mode : Variable
    Frame rate : 25.000 fps
    Resolution : 24 bits
    Colorimetry : 4:2:0
    Scan type : Progressive
    Bits/(Pixel*Frame) : 0.072
    Stream size : 2.27 GiB (93%)
    Writing library : avc encoder v1.9
    ID : 2
    Format : AC-3
    Format/Info : Audio Coding 3
    Codec ID : A_AC3
    Duration : 1h 26mn
    Bit rate mode : Constant
    Bit rate : 192 Kbps
    Channel(s) : 2 channels
    Channel positions : L R
    Sampling rate : 48.0 KHz
    Stream size : 119 MiB (5%)

    Скриншот c названием фильма


    Download .torrent

    Download free and at maximum speed!

    How to Download? · What is a torrent? · Ratings and Limitations

    The site does not extend and does not store electronic(digital) versions of products, and only gives access to a reference catalogue created by users on torrent-files which contain only lists of the hash-sums, the earnest entreaty, with complaints(abuse) to access directly to the user. Files for an exchange on tracker are given by users of a site, and the administration does not bear the responsibility for their maintenance. The request to not fill in the files protected by copyrights, and also files of the illegal maintenance!

    [Profile] [PM]
    Display posts from previous:    
    Reply to topic

    The time now is: Today 07:05

    All times are GMT + 3 Hours

    You cannot post new topics in this forum
    You cannot reply to topics in this forum
    You cannot edit your posts in this forum
    You cannot delete your posts in this forum
    You cannot vote in polls in this forum
    You cannot attach files in this forum
    You cannot download files in this forum