BitTorrentTracker PerecTracker.org
BitTorrentTracker PerecTracker.org
    
Регистрация  ·  Вход
 
 · 
Забыли пароль?

  • Великие рейды Второй мировой войны / WWII's Greatest Raids [2014, Документальный, война, история, HDTVRip]

    Ответить на тему
     
    Автор Сообщение

    Columb

    Создавать темы 02-Сен-2014 19:29

           

    [Цитировать]

    Великие рейды Второй мировой войны / WWII's Greatest Raids
    Дата/Год выпуска: 2014
    Жанр: Документальный, война, история
    Продолжительность: 00:43:59
    Перевод: Одноголосый закадровый
    Телеканал: National Geographic
    Описание: Иногда небольшие специальные военные отряды могут решить исход боя. Эти увлекающие серии документального сериала расскажут о некоторых элитных отрядах сил специального назначения, которые воевали во Второй мировой войне. Как некоторые их опасные и рискованные операции повлияли на ход Второй мировой войны - благодаря уникальному сочетанию превосходных навыков, тщательной подготовке и совершенному снаряжению.
    Доп. информация: HDTVRip by alf62

    качество: HDTVRip
    формат: AVI
    Видео: 720x400 (1.80:1), 25 fps, DivX, 1804 kbps avg, 0.25 bit/pixel
    Аудио: 48 kHz, AC3 Dolby Digital, 2/0 (L,R) ch, ~192.00 kbps avg

    Список выпусков/серий

    1. Рейнджеры всегда впереди / Rangers Lead the Way
    6 июня 1944 года. Американские рейнджеры возглавляют крупнейшую десантную операцию в истории - высадку союзных войск на побережье Франции.

    MediaInfo

    WWII.Greatest.Raids.2014.DivX.HDTVRip.alf62\WWII.Greatest.Raids.(1.serija.iz.6).Rejndzhery.vsegda.vperedi.2014.DivX.HDTVRip.alf62.aviФормат : AVIФормат/Информация : Audio Video InterleaveРазмер файла : 630 МбайтПродолжительность : 43 м.Общий поток : 2002 Кбит/секБиблиотека кодирования : Boilsoft Joiner build 2411/release
    ВидеоИдентификатор : 0Формат : MPEG-4 VisualПрофиль формата : Advanced Simple@L5Параметр BVOP формата : 2Параметр QPel формата : НетПараметр GMC формата : Без точки переходаПараметр матрицы формата : Default (MPEG)Идентификатор кодека : DX50Идентификатор кодека/Подсказка : DivX 5Продолжительность : 43 м.Битрейт : 1800 Кбит/секШирина : 720 пикселейВысота : 400 пикселейСоотношение сторон : 16:9Частота кадров : 25,000 кадров/секЦветовое пространство : YUVСубдискретизация насыщенности : 4:2:0Битовая глубина : 8 битТип развёртки : ПрогрессивнаяМетод сжатия : С потерямиБит/(Пиксели*Кадры) : 0.250Размер потока : 566 Мбайт (90%)Библиотека кодирования : XviD 73
    АудиоИдентификатор : 1Формат : AC-3Формат/Информация : Audio Coding 3Расширение режима : CM (complete main)Параметр Endianness формата : BigИдентификатор кодека : 2000Продолжительность : 43 м.Вид битрейта : ПостоянныйБитрейт : 192 Кбит/секКаналы : 2 каналаРасположение каналов : Front: L RЧастота : 48,0 КГцБитовая глубина : 16 битМетод сжатия : С потерямиЗадержка видео : 16 мс.Размер потока : 60,4 Мбайт (10%)Выравнивание : Разделение по промежуткамПродолжительность промежутка : 40 мс. (1,00 видеокадр)Время предзагрузки промежутка : 500 мс.

    Скриншоты


    Скачать .torrent

    Скачать торрент-файл бесплатно и на максимальной скорости!

    Как скачивать? · Что такое торрент? · Рейтинг и ограничения

    !ВНИМАНИЕ!
    Сайт не распространяет и не хранит электронные версии произведений, а занимается лишь лишь предоставлением доступа к создаваемому пользователями каталогу ссылок на торрент-файлы, которые содержат только списки хеш-сумм, убедительная просьба с жалобами обращаться напрямую к пользователю. Файлы для обмена на трекере предоставлены пользователями сайта, и администрация не несёт ответственности за их содержание. Просьба не заливать файлы, защищенные авторскими правами, а также файлы нелегального содержания!

    [Профиль] [ЛС]
    Показать сообщения:    
    Ответить на тему

    Текущее время: Сегодня, в 06:14

    Часовой пояс: GMT + 2



    Вы не можете начинать темы
    Вы не можете отвечать на сообщения
    Вы не можете редактировать свои сообщения
    Вы не можете удалять свои сообщения
    Вы не можете голосовать в опросах
    Вы не можете прикреплять файлы к сообщениям
    Вы не можете скачивать файлы