Register  ·  Log in
Forgot password?

  • Всем нужна Кэт 2 / Cat Run 2 (Джон Стокуэлл / John Stockwell ) [2014, США, боевик, HDRip] VO (Andi)

    Reply to topic
    Author Message


    Post 31-Aug-2014 11:22



    Всем нужна Кэт 2 / Cat Run 2
    Страна: США
    Жанр: боевик
    Год выпуска: 2014
    Продолжительность: 01:36:11
    Перевод: Одноголосый закадровый [Andi] по переводу М_Васильев
    Cубтитры: нет
    Оригинальная аудиодорожка: нет
    Режиссер: Джон Стокуэлл / John Stockwell
    В ролях: Скотт Мехловиц, Альфонсо МакОли< Винтер Эйв Золи< Kamille Leai< Ванесса Бренч< Мария Роджерс< Лоуренс П. Берон< Томас Та Хайд III, Дэвид Мальдонадо, Леонардо Нам
    Описание: Когда несколько высокопоставленных чиновников убиты на их собственной военной базе, два детектива обнаружили сверхсекретный эксперимент, который ставит под угрозу их жизнь и безопасность страны. Энтони и Джулиан - детективы-дебютанты решили совершить поездку в Новый Орлеан.
    Качество видео: HDRip
    Формат видео: AVI
    Видео: 720x400 (1.80:1), 23.976 fps, XviD MPEG-4 ~1689 kbps avg, 0.24 bit/pixel
    Аудио: 48 kHz, AC3 Dolby Digital, 3/2 (L,C,R,l,r) + LFE ch, ~448 kbps


    Complete name : E:\Cat.Run.2.2014.HDRip.1.45Gb.avi
    Format : AVI
    Format/Info : Audio Video Interleave
    File size : 1.44 GiB
    Duration : 1h 36mn
    Overall bit rate : 2 147 Kbps
    Writing application : VirtualDubMod (build 2540/release)
    Writing library : VirtualDubMod build 2540/release
    Video #0
    ID : 0
    Format : MPEG-4 Visual
    Format profile : Advanced Simple@L5
    Format settings, BVOP : 2
    Format settings, QPel : No
    Format settings, GMC : No warppoints
    Format settings, Matrix : Default (H.263)
    Muxing mode : Packed bitstream
    Codec ID : XVID
    Codec ID/Hint : XviD
    Duration : 1h 36mn
    Bit rate : 1 690 Kbps
    Width : 720 pixels
    Height : 400 pixels
    Display aspect ratio : 16:9
    Frame rate : 23.976 fps
    Color space : YUV
    Chroma subsampling : 4:2:0
    Bit depth : 8 bits
    Scan type : Progressive
    Compression mode : Lossy
    Bits/(Pixel*Frame) : 0.245
    Stream size : 1.14 GiB (79%)
    Writing library : XviD 64
    Audio #1
    ID : 1
    Format : AC-3
    Format/Info : Audio Coding 3
    Mode extension : CM (complete main)
    Format settings, Endianness : Big
    Codec ID : 2000
    Duration : 1h 36mn
    Bit rate mode : Constant
    Bit rate : 448 Kbps
    Channel count : 6 channels
    Channel positions : Front: L C R, Side: L R, LFE
    Sampling rate : 48.0 KHz
    Bit depth : 16 bits
    Compression mode : Lossy
    Stream size : 308 MiB (21%)
    Alignment : Split accross interleaves
    Interleave, duration : 42 ms (1.00 video frame)
    Interleave, preload duration : 500 ms

    Скриншот c названием фильма


    Download .torrent

    Download free and at maximum speed!

    How to Download? · What is a torrent? · Ratings and Limitations

    The site does not extend and does not store electronic(digital) versions of products, and only gives access to a reference catalogue created by users on torrent-files which contain only lists of the hash-sums, the earnest entreaty, with complaints(abuse) to access directly to the user. Files for an exchange on tracker are given by users of a site, and the administration does not bear the responsibility for their maintenance. The request to not fill in the files protected by copyrights, and also files of the illegal maintenance!

    [Profile] [PM]
    Display posts from previous:    
    Reply to topic

    The time now is: Today 12:34

    All times are GMT + 3 Hours

    You cannot post new topics in this forum
    You cannot reply to topics in this forum
    You cannot edit your posts in this forum
    You cannot delete your posts in this forum
    You cannot vote in polls in this forum
    You cannot attach files in this forum
    You cannot download files in this forum