BitTorrentTracker PerecTracker.org
BitTorrentTracker PerecTracker.org
    
Регистрация  ·  Вход
 
 · 
Забыли пароль?

  • Скорострел / Хочу. Не могу / Premature (Дэн Бирс / Dan Beers) [2014, США, Молодежная комедия, WEB-DLRip] DVO (3А Студия)

    Ответить на тему
     
    Автор Сообщение

    Columb

    Создавать темы 30-Авг-2014 14:37

           

    [Цитировать]

    Хочу. Не могуPremature«Coming WAY Too Soon»-Страна: США
    Жанр: комедия
    Год выпуска: 2014
    Продолжительность: 01:33:44-Перевод: Любительский (двухголосый) (3А Студия)
    Субтитры: нет
    Режиссер: Дэн Бирс / Dan Beers
    В ролях: Джон Карна, Кэти Финдлей, Крэйг Робертс, Карлсон Янг, Алан Тьюдик-Описание: Для выпускника старших классов наступает самый главный день в его жизни, как в личном плане, так и в учебе. Но все обламывается, так и не дойдя до финала. Просыпаясь на следующее утро, он понимает, что попал в «День Сурка». И теперь ему предстоит раз за разом переживать все события этого самого главного дня, пока все не пройдет идеально. Но удастся ли ему выбраться из временной петли и сделать свои подростковые фантазии реальностью?-
    MPAA: R - Лицам до 17 лет обязательно присутствие взрослого-Качество: WEB-DLRip | WEB-DL 720p | sample
    Контейнер: AVI
    Видео: XviD, 720x304 (2.35:1), 2019 kbps, 23,976 fps, 0,385 bpp
    Аудио: AC3 / 2.0 / 48 kHz / 192 kbps / 16 bit-

    Скриншоты

    Media Info

    General
    Complete name : E:\my_rip\Premature.2014.WEBDLRip.by.Дядя_Лёша.avi
    Format : AVI
    Format/Info : Audio Video Interleave
    File size : 1.45 GiB
    Duration : 1h 33mn
    Overall bit rate : 2 221 Kbps
    Writing application : VirtualDubMod 1.5.10.3 | www.virtualdub-fr.org || (build 2550/release)
    Writing library : VirtualDubMod build 2550/release
    Video
    ID : 0
    Format : MPEG-4 Visual
    Format profile : Advanced Simple@L5
    Format settings, BVOP : 1
    Format settings, QPel : No
    Format settings, GMC : No warppoints
    Format settings, Matrix : Custom
    Codec ID : XVID
    Codec ID/Hint : XviD
    Duration : 1h 33mn
    Bit rate : 2 020 Kbps
    Width : 720 pixels
    Height : 304 pixels
    Display aspect ratio : 2.35:1
    Frame rate : 23.976 fps
    Color space : YUV
    Chroma subsampling : 4:2:0
    Bit depth : 8 bits
    Scan type : Progressive
    Compression mode : Lossy
    Bits/(Pixel*Frame) : 0.385
    Stream size : 1.32 GiB (91%)
    Writing library : XviD 73
    Audio
    ID : 1
    Format : AC-3
    Format/Info : Audio Coding 3
    Mode extension : CM (complete main)
    Codec ID : 2000
    Duration : 1h 33mn
    Bit rate mode : Constant
    Bit rate : 192 Kbps
    Channel(s) : 2 channels
    Channel positions : Front: L R
    Sampling rate : 48.0 KHz
    Bit depth : 16 bits
    Compression mode : Lossy
    Stream size : 129 MiB (9%)
    Alignment : Split accross interleaves
    Interleave, duration : 42 ms (1.00 video frame)
    Interleave, preload duration : 500 ms
    Скачать .torrent

    Скачать торрент-файл бесплатно и на максимальной скорости!

    Как скачивать? · Что такое торрент? · Рейтинг и ограничения

    !ВНИМАНИЕ!
    Сайт не распространяет и не хранит электронные версии произведений, а занимается лишь лишь предоставлением доступа к создаваемому пользователями каталогу ссылок на торрент-файлы, которые содержат только списки хеш-сумм, убедительная просьба с жалобами обращаться напрямую к пользователю. Файлы для обмена на трекере предоставлены пользователями сайта, и администрация не несёт ответственности за их содержание. Просьба не заливать файлы, защищенные авторскими правами, а также файлы нелегального содержания!

    [Профиль] [ЛС]
    Показать сообщения:    
    Ответить на тему

    Текущее время: Сегодня, в 04:05

    Часовой пояс: GMT + 2



    Вы не можете начинать темы
    Вы не можете отвечать на сообщения
    Вы не можете редактировать свои сообщения
    Вы не можете удалять свои сообщения
    Вы не можете голосовать в опросах
    Вы не можете прикреплять файлы к сообщениям
    Вы не можете скачивать файлы