BitTorrentTracker PerecTracker.org
BitTorrentTracker PerecTracker.org
    
Регистрация  ·  Вход
 
 · 
Забыли пароль?

  • Хулиган / Hellion (Кэт Кэндлер / Kat Candler) [2014, США, триллер, драма, WEB-DLRip] VO (Lord32x)

    Ответить на тему
     
    Автор Сообщение

    Columb

    Создавать темы 30-Авг-2014 14:01

           

    [Цитировать]

    Хулиган / Hellion
    Страна: США
    Жанр: триллер, драма
    Год выпуска: 2014
    Продолжительность: 01:39:19
    Перевод: Одноголосый закадровый Lord32x
    Cубтитры: нет
    Оригинальная аудиодорожка: нет
    Режиссер: Кэт Кэндлер / Kat Candler
    В ролях: Аарон Пол, Джульетт Льюис, Джош Уиггинс, Деке Гарнер, Далтон Саттон, Кэмрон Оуэнс, Динал Коул, Джонни Марс, Уолт Робертс, Аннали Джеффрис
    Описание: Тринадцатилетний Джейкоб всё сложнее поддаётся контролированию. Делинквентное поведение подростка, помешанного на мотокроссе, вносит разлад в его семью. Ситуация окончательно становится взрывоопасной, когда Джейкоб привлекает своего младшего брата, Уэса, к участию в преступлении. Отец Джейкоба, который ещё не смог до конца оправиться после смерти жены, Холлис почти не следит за своими сыновьями. Когда же вмешиваются службы защиты детей и отправляют Уэса жить к его тёте Пэм, Холлису и Джейкобу приходится осознать свою вину, чтобы вернуть Уэса домой.
    Доп. информация:

    Сэмпл: http://multi-up.com/995546
    Релиз группа: GIPERWAREZ
    Качество видео: WEB-DLRip
    Формат видео: AVI
    Видео: 720x304 (2.37:1), 23.976 fps, XviD build 50 ~1716 kbps avg, 0.33 bit/pixel
    Аудио: 48 kHz, AC3 Dolby Digital, 3/2 (L,C,R,l,r) + LFE ch, ~384 kbps

    MediaInfo

    General
    Complete name : C:\Users\Вика\Desktop\Hellion.2014.WEBDL-Rip.avi
    Format : AVI
    Format/Info : Audio Video Interleave
    File size : 1.46 GiB
    Duration : 1h 39mn
    Overall bit rate : 2 110 Kbps
    Writing application : VirtualDubMod 1.5.10.3 | www.virtualdub-fr.org || (build 2550/release)
    Writing library : VirtualDubMod build 2550/release
    Video
    ID : 0
    Format : MPEG-4 Visual
    Format profile : Advanced Simple@L5
    Format settings, BVOP : Yes
    Format settings, QPel : No
    Format settings, GMC : No warppoints
    Format settings, Matrix : Default (MPEG)
    Codec ID : XVID
    Codec ID/Hint : XviD
    Duration : 1h 39mn
    Bit rate : 1 717 Kbps
    Width : 720 pixels
    Height : 304 pixels
    Display aspect ratio : 2.35:1
    Frame rate : 23.976 fps
    Color space : YUV
    Chroma subsampling : 4:2:0
    Bit depth : 8 bits
    Scan type : Progressive
    Compression mode : Lossy
    Bits/(Pixel*Frame) : 0.327
    Stream size : 1.19 GiB (81%)
    Writing library : XviD 1.2.1 (UTC 2008-12-04)
    Audio
    ID : 1
    Format : AC-3
    Format/Info : Audio Coding 3
    Mode extension : CM (complete main)
    Format settings, Endianness : Big
    Codec ID : 2000
    Duration : 1h 39mn
    Bit rate mode : Constant
    Bit rate : 384 Kbps
    Channel count : 6 channels
    Channel positions : Front: L C R, Side: L R, LFE
    Sampling rate : 48.0 KHz
    Bit depth : 16 bits
    Compression mode : Lossy
    Stream size : 273 MiB (18%)
    Alignment : Split accross interleaves
    Interleave, duration : 42 ms (1.00 video frame)
    Interleave, preload duration : 500 ms

    Скриншоты

    Скачать .torrent

    Скачать торрент-файл бесплатно и на максимальной скорости!

    Как скачивать? · Что такое торрент? · Рейтинг и ограничения

    !ВНИМАНИЕ!
    Сайт не распространяет и не хранит электронные версии произведений, а занимается лишь лишь предоставлением доступа к создаваемому пользователями каталогу ссылок на торрент-файлы, которые содержат только списки хеш-сумм, убедительная просьба с жалобами обращаться напрямую к пользователю. Файлы для обмена на трекере предоставлены пользователями сайта, и администрация не несёт ответственности за их содержание. Просьба не заливать файлы, защищенные авторскими правами, а также файлы нелегального содержания!

    [Профиль] [ЛС]
    Показать сообщения:    
    Ответить на тему

    Текущее время: Сегодня, в 07:04

    Часовой пояс: GMT + 2



    Вы не можете начинать темы
    Вы не можете отвечать на сообщения
    Вы не можете редактировать свои сообщения
    Вы не можете удалять свои сообщения
    Вы не можете голосовать в опросах
    Вы не можете прикреплять файлы к сообщениям
    Вы не можете скачивать файлы