Register  ·  Log in
Forgot password?

  • Обыкновенное сердце / The Normal Heart (Райан Мерфи / Ryan Murphy) [2014, США, Драма, BDRip] MVO (Amedia)

    Reply to topic
    Author Message


    Post 29-Aug-2014 21:49



    Обыкновенное сердце / The Normal Heart-Год выпуска: 2014
    Выпущено: США / HBO Films
    Жанр: драма
    Продолжительность: 02:12:35
    Перевод: Профессиональный (многоголосый закадровый) Amedia
    Cубтитры: нет-Режиссер:
    Райан Мерфи / Ryan Murphy-В ролях:
    Марк Руффало, Мэтт Бомер, Тейлор Китч, Джим Парсонс, Джулия Робертс, Джонатан Грофф, Фрэнк де Хулио, Уилльям ДеМеритт, Джо Мантелло, Шон Миэн, Альфред Молина-Описание:
    Гомосексуальный активист пытается поднять проблему СПИДа в начале восьмидесятых.-IMDB | КиноПоиск | Сэмпл |-Качество: BDRip [BDRemux | 1080p | Кинозал]
    Формат: AVI
    Видео: 688x384 (1.79:1), 23.976 fps, XviD build 73 ~1371 kbps avg, 0.22 bit/pixel
    Аудио: 48 kHz, AC3 Dolby Digital, 2/0 (L,R) ch, ~192.00 kbps avg



    Complete name                            : D:\Obyknovennoe_serdce_2014_BDRip_by_Dalemake.avi
    Format                                   : AVI
    Format/Info                              : Audio Video Interleave
    File size                                : 1.46 GiB
    Duration                                 : 2h 12mn
    Overall bit rate                         : 1 572 Kbps
    Writing application                      : VirtualDubMod | || (build 2550/release)
    Writing library                          : VirtualDubMod build 2550/release
    ID                                       : 0
    Format                                   : MPEG-4 Visual
    Format profile                           : Advanced Simple@L5
    Format settings, BVOP                    : 1
    Format settings, QPel                    : No
    Format settings, GMC                     : No warppoints
    Format settings, Matrix                  : Custom
    Codec ID                                 : XVID
    Codec ID/Hint                            : XviD
    Duration                                 : 2h 12mn
    Bit rate                                 : 1 371 Kbps
    Width                                    : 688 pixels
    Height                                   : 384 pixels
    Display aspect ratio                     : 16:9
    Frame rate                               : 23.976 fps
    Color space                              : YUV
    Chroma subsampling                       : 4:2:0
    Bit depth                                : 8 bits
    Scan type                                : Progressive
    Compression mode                         : Lossy
    Bits/(Pixel*Frame)                       : 0.216
    Stream size                              : 1.27 GiB (87%)
    Writing library                          : XviD 73
    ID                                       : 1
    Format                                   : AC-3
    Format/Info                              : Audio Coding 3
    Mode extension                           : CM (complete main)
    Format settings, Endianness              : Big
    Codec ID                                 : 2000
    Duration                                 : 2h 12mn
    Bit rate mode                            : Constant
    Bit rate                                 : 192 Kbps
    Channel(s)                               : 2 channels
    Channel positions                        : Front: L R
    Sampling rate                            : 48.0 KHz
    Bit depth                                : 16 bits
    Compression mode                         : Lossy
    Stream size                              : 182 MiB (12%)
    Alignment                                : Split accross interleaves
    Interleave, duration                     : 42 ms (1.00 video frame)
    Interleave, preload duration             : 500 ms
    Download .torrent

    Download free and at maximum speed!

    How to Download? · What is a torrent? · Ratings and Limitations

    The site does not extend and does not store electronic(digital) versions of products, and only gives access to a reference catalogue created by users on torrent-files which contain only lists of the hash-sums, the earnest entreaty, with complaints(abuse) to access directly to the user. Files for an exchange on tracker are given by users of a site, and the administration does not bear the responsibility for their maintenance. The request to not fill in the files protected by copyrights, and also files of the illegal maintenance!

    [Profile] [PM]
    Display posts from previous:    
    Reply to topic

    The time now is: Today 15:07

    All times are GMT + 3 Hours

    You cannot post new topics in this forum
    You cannot reply to topics in this forum
    You cannot edit your posts in this forum
    You cannot delete your posts in this forum
    You cannot vote in polls in this forum
    You cannot attach files in this forum
    You cannot download files in this forum