BitTorrentTracker PerecTracker.org
BitTorrentTracker PerecTracker.org
    
Регистрация  ·  Вход
 
 · 
Забыли пароль?

  • MTV Video Music Awards (VMA) 2014 [2014, Церемония награждения, DVB]

    Ответить на тему
     
    Автор Сообщение

    Columb

    Создавать темы 29-Авг-2014 20:38

           

    [Цитировать]

    MTV Video Music Awards (VMA) 2014
    Дата/Год выпуска: 2014
    Страна: США
    Жанр: Церемония награждения
    Продолжительность: 01:21:36
    Перевод: Профессиональный (двухголосый закадровый) /MTV Россия/
    Запись: Beer kolesik Drinkers
    Телеканал: MTV Россия
    Описание: Добро пожаловать на премию MTV VMA 2014! Тебя ждут самые яркие звезды современной музыкальной сцены, невероятные видеоклипы, потрясающие живые выступления...и 16 номинаций,включая самую главную - «видео года». Узнай, кто станет лучшим из лучших!
    Сэмпл: http://rusfolder.com/41583690
    качество: DVB
    формат: MPG
    Видео: 720x576 (16:9), 25.000 fps, 2833 Kbps
    Аудио: MPEG Audio layer 2, 48.0 KHz, 2 ch, 192 Kbps

    MediaInfo

    GeneralComplete name : C:\MTV.Video.Music.Awards.2014.mpgFormat : MPEG-PSFile size : 1.76 GiBDuration : 1h 21mnOverall bit rate mode : VariableOverall bit rate : 3 086 Kbps
    VideoID : 224 (0xE0)Format : MPEG VideoFormat version : Version 2Format profile : Main@MainFormat settings, BVOP : YesFormat settings, Matrix : CustomFormat settings, GOP : VariableDuration : 1h 21mnBit rate mode : VariableBit rate : 2 833 KbpsMaximum bit rate : 5 000 KbpsWidth : 720 pixelsHeight : 576 pixelsDisplay aspect ratio : 16:9Frame rate : 25.000 fpsStandard : PALColor space : YUVChroma subsampling : 4:2:0Bit depth : 8 bitsScan type : InterlacedScan order : Top Field FirstCompression mode : LossyBits/(Pixel*Frame) : 0.273Time code of first frame : 00:00:00:00Time code source : Group of pictures headerStream size : 1.61 GiB (92%)
    AudioID : 192 (0xC0)Format : MPEG AudioFormat version : Version 1Format profile : Layer 2Duration : 1h 21mnBit rate mode : ConstantBit rate : 192 KbpsChannel(s) : 2 channelsSampling rate : 48.0 KHzCompression mode : LossyDelay relative to video : 7msStream size : 112 MiB (6%)

    Скриншоты

    Скачать .torrent

    Скачать торрент-файл бесплатно и на максимальной скорости!

    Как скачивать? · Что такое торрент? · Рейтинг и ограничения

    !ВНИМАНИЕ!
    Сайт не распространяет и не хранит электронные версии произведений, а занимается лишь лишь предоставлением доступа к создаваемому пользователями каталогу ссылок на торрент-файлы, которые содержат только списки хеш-сумм, убедительная просьба с жалобами обращаться напрямую к пользователю. Файлы для обмена на трекере предоставлены пользователями сайта, и администрация не несёт ответственности за их содержание. Просьба не заливать файлы, защищенные авторскими правами, а также файлы нелегального содержания!

    [Профиль] [ЛС]
    Показать сообщения:    
    Ответить на тему

    Текущее время: Сегодня, в 19:36

    Часовой пояс: GMT + 2



    Вы не можете начинать темы
    Вы не можете отвечать на сообщения
    Вы не можете редактировать свои сообщения
    Вы не можете удалять свои сообщения
    Вы не можете голосовать в опросах
    Вы не можете прикреплять файлы к сообщениям
    Вы не можете скачивать файлы