Register  ·  Log in
Forgot password?

  • MTV Video Music Awards (VMA) 2014 [2014, Церемония награждения, DVB]

    Reply to topic
    Author Message


    Post 29-Aug-2014 21:38



    MTV Video Music Awards (VMA) 2014
    Дата/Год выпуска: 2014
    Страна: США
    Жанр: Церемония награждения
    Продолжительность: 01:21:36
    Перевод: Профессиональный (двухголосый закадровый) /MTV Россия/
    Запись: Beer kolesik Drinkers
    Телеканал: MTV Россия
    Описание: Добро пожаловать на премию MTV VMA 2014! Тебя ждут самые яркие звезды современной музыкальной сцены, невероятные видеоклипы, потрясающие живые выступления...и 16 номинаций,включая самую главную - «видео года». Узнай, кто станет лучшим из лучших!
    качество: DVB
    формат: MPG
    Видео: 720x576 (16:9), 25.000 fps, 2833 Kbps
    Аудио: MPEG Audio layer 2, 48.0 KHz, 2 ch, 192 Kbps


    GeneralComplete name : C:\MTV.Video.Music.Awards.2014.mpgFormat : MPEG-PSFile size : 1.76 GiBDuration : 1h 21mnOverall bit rate mode : VariableOverall bit rate : 3 086 Kbps
    VideoID : 224 (0xE0)Format : MPEG VideoFormat version : Version 2Format profile : Main@MainFormat settings, BVOP : YesFormat settings, Matrix : CustomFormat settings, GOP : VariableDuration : 1h 21mnBit rate mode : VariableBit rate : 2 833 KbpsMaximum bit rate : 5 000 KbpsWidth : 720 pixelsHeight : 576 pixelsDisplay aspect ratio : 16:9Frame rate : 25.000 fpsStandard : PALColor space : YUVChroma subsampling : 4:2:0Bit depth : 8 bitsScan type : InterlacedScan order : Top Field FirstCompression mode : LossyBits/(Pixel*Frame) : 0.273Time code of first frame : 00:00:00:00Time code source : Group of pictures headerStream size : 1.61 GiB (92%)
    AudioID : 192 (0xC0)Format : MPEG AudioFormat version : Version 1Format profile : Layer 2Duration : 1h 21mnBit rate mode : ConstantBit rate : 192 KbpsChannel(s) : 2 channelsSampling rate : 48.0 KHzCompression mode : LossyDelay relative to video : 7msStream size : 112 MiB (6%)


    Download .torrent

    Download free and at maximum speed!

    How to Download? · What is a torrent? · Ratings and Limitations

    The site does not extend and does not store electronic(digital) versions of products, and only gives access to a reference catalogue created by users on torrent-files which contain only lists of the hash-sums, the earnest entreaty, with complaints(abuse) to access directly to the user. Files for an exchange on tracker are given by users of a site, and the administration does not bear the responsibility for their maintenance. The request to not fill in the files protected by copyrights, and also files of the illegal maintenance!

    [Profile] [PM]
    Display posts from previous:    
    Reply to topic

    The time now is: Today 00:22

    All times are GMT + 3 Hours

    You cannot post new topics in this forum
    You cannot reply to topics in this forum
    You cannot edit your posts in this forum
    You cannot delete your posts in this forum
    You cannot vote in polls in this forum
    You cannot attach files in this forum
    You cannot download files in this forum