Register  ·  Log in
Forgot password?

  • Поселенцы / Захватчики / Squatters (Мартин Вайз / Martin Weisz) [2014, США, драма, WEB-DLRip] MVO [iTunes]

    Reply to topic
    Author Message


    Post 28-Aug-2014 23:53



    ПоселенцыSquatters«They want what they have»-Страна: США
    Жанр: драма
    Год выпуска: 2014
    Продолжительность: 01:45:52-Перевод: Профессиональный (многоголосый, закадровый) [iTunes]
    Режиссер: Мартин Вайз / Martin Weisz
    В ролях: Люк Граймс, Габриэлла Уайлд, Томас Деккер, Ричард Дрейфусс, Нэнси Трэвис, Джина Мантенья, Ивэн Росс, Лолита Давидович, Крис Уильямс, Эндрю Ховард-Описание: Рано вернувшаяся домой из отпуска богатая пара обнаруживает у себя в доме двух бездомных влюбленных.-
    MPAA: R - Лицам до 17 лет обязательно присутствие взрослого-Качество: WEB-DLRip | WEB-DL 720p | sample
    Контейнер: AVI
    Видео: XviD, 720x304 (2.35:1), 847 kbps, 23,976 fps, 0,162 bpp
    Аудио: MP3 / 2.0 / 48 kHz / 128 kbps /-


    Media Info

    Complete name : E:\my_rip\Дядя_Лёша.avi
    Format : AVI
    Format/Info : Audio Video Interleave
    File size : 746 MiB
    Duration : 1h 45mn
    Overall bit rate : 985 Kbps
    Writing application : VirtualDubMod | || (build 2550/release)
    Writing library : VirtualDubMod build 2550/release
    ID : 0
    Format : MPEG-4 Visual
    Format profile : Advanced Simple@L5
    Format settings, BVOP : 1
    Format settings, QPel : No
    Format settings, GMC : No warppoints
    Format settings, Matrix : Custom
    Codec ID : XVID
    Codec ID/Hint : XviD
    Duration : 1h 45mn
    Bit rate : 848 Kbps
    Width : 720 pixels
    Height : 304 pixels
    Display aspect ratio : 2.35:1
    Frame rate : 23.976 fps
    Color space : YUV
    Chroma subsampling : 4:2:0
    Bit depth : 8 bits
    Scan type : Progressive
    Compression mode : Lossy
    Bits/(Pixel*Frame) : 0.162
    Stream size : 642 MiB (86%)
    Writing library : XviD 73
    ID : 1
    Format : MPEG Audio
    Format version : Version 1
    Format profile : Layer 3
    Codec ID : 55
    Codec ID/Hint : MP3
    Duration : 1h 45mn
    Bit rate mode : Constant
    Bit rate : 128 Kbps
    Channel(s) : 2 channels
    Sampling rate : 48.0 KHz
    Compression mode : Lossy
    Stream size : 96.9 MiB (13%)
    Alignment : Aligned on interleaves
    Interleave, duration : 42 ms (1.00 video frame)
    Interleave, preload duration : 504 ms
    Writing library : LAME3.99r
    Encoding settings : -m s -V 4 -q 2 -lowpass 17 -b 128
    Download .torrent

    Download free and at maximum speed!

    How to Download? · What is a torrent? · Ratings and Limitations

    The site does not extend and does not store electronic(digital) versions of products, and only gives access to a reference catalogue created by users on torrent-files which contain only lists of the hash-sums, the earnest entreaty, with complaints(abuse) to access directly to the user. Files for an exchange on tracker are given by users of a site, and the administration does not bear the responsibility for their maintenance. The request to not fill in the files protected by copyrights, and also files of the illegal maintenance!

    [Profile] [PM]
    Display posts from previous:    
    Reply to topic

    The time now is: Today 14:01

    All times are GMT + 3 Hours

    You cannot post new topics in this forum
    You cannot reply to topics in this forum
    You cannot edit your posts in this forum
    You cannot delete your posts in this forum
    You cannot vote in polls in this forum
    You cannot attach files in this forum
    You cannot download files in this forum