BitTorrentTracker PerecTracker.org
BitTorrentTracker PerecTracker.org
    
Регистрация  ·  Вход
 
 · 
Забыли пароль?

  • Поселенцы / Захватчики / Squatters (Мартин Вайз / Martin Weisz) [2014, США, драма, WEB-DLRip] MVO [iTunes]

    Ответить на тему
     
    Автор Сообщение

    Columb

    Создавать темы 28-Авг-2014 22:53

           

    [Цитировать]

    ПоселенцыSquatters«They want what they have»-Страна: США
    Жанр: драма
    Год выпуска: 2014
    Продолжительность: 01:45:52-Перевод: Профессиональный (многоголосый, закадровый) [iTunes]
    Режиссер: Мартин Вайз / Martin Weisz
    В ролях: Люк Граймс, Габриэлла Уайлд, Томас Деккер, Ричард Дрейфусс, Нэнси Трэвис, Джина Мантенья, Ивэн Росс, Лолита Давидович, Крис Уильямс, Эндрю Ховард-Описание: Рано вернувшаяся домой из отпуска богатая пара обнаруживает у себя в доме двух бездомных влюбленных.-
    MPAA: R - Лицам до 17 лет обязательно присутствие взрослого-Качество: WEB-DLRip | WEB-DL 720p | sample
    Контейнер: AVI
    Видео: XviD, 720x304 (2.35:1), 847 kbps, 23,976 fps, 0,162 bpp
    Аудио: MP3 / 2.0 / 48 kHz / 128 kbps /-

    Скриншоты

    Media Info

    General
    Complete name : E:\my_rip\Poselentsy.2014.WEBDLRip745.by.Дядя_Лёша.avi
    Format : AVI
    Format/Info : Audio Video Interleave
    File size : 746 MiB
    Duration : 1h 45mn
    Overall bit rate : 985 Kbps
    Writing application : VirtualDubMod 1.5.10.3 | www.virtualdub-fr.org || (build 2550/release)
    Writing library : VirtualDubMod build 2550/release
    Video
    ID : 0
    Format : MPEG-4 Visual
    Format profile : Advanced Simple@L5
    Format settings, BVOP : 1
    Format settings, QPel : No
    Format settings, GMC : No warppoints
    Format settings, Matrix : Custom
    Codec ID : XVID
    Codec ID/Hint : XviD
    Duration : 1h 45mn
    Bit rate : 848 Kbps
    Width : 720 pixels
    Height : 304 pixels
    Display aspect ratio : 2.35:1
    Frame rate : 23.976 fps
    Color space : YUV
    Chroma subsampling : 4:2:0
    Bit depth : 8 bits
    Scan type : Progressive
    Compression mode : Lossy
    Bits/(Pixel*Frame) : 0.162
    Stream size : 642 MiB (86%)
    Writing library : XviD 73
    Audio
    ID : 1
    Format : MPEG Audio
    Format version : Version 1
    Format profile : Layer 3
    Codec ID : 55
    Codec ID/Hint : MP3
    Duration : 1h 45mn
    Bit rate mode : Constant
    Bit rate : 128 Kbps
    Channel(s) : 2 channels
    Sampling rate : 48.0 KHz
    Compression mode : Lossy
    Stream size : 96.9 MiB (13%)
    Alignment : Aligned on interleaves
    Interleave, duration : 42 ms (1.00 video frame)
    Interleave, preload duration : 504 ms
    Writing library : LAME3.99r
    Encoding settings : -m s -V 4 -q 2 -lowpass 17 -b 128
    Скачать .torrent

    Скачать торрент-файл бесплатно и на максимальной скорости!

    Как скачивать? · Что такое торрент? · Рейтинг и ограничения

    !ВНИМАНИЕ!
    Сайт не распространяет и не хранит электронные версии произведений, а занимается лишь лишь предоставлением доступа к создаваемому пользователями каталогу ссылок на торрент-файлы, которые содержат только списки хеш-сумм, убедительная просьба с жалобами обращаться напрямую к пользователю. Файлы для обмена на трекере предоставлены пользователями сайта, и администрация не несёт ответственности за их содержание. Просьба не заливать файлы, защищенные авторскими правами, а также файлы нелегального содержания!

    [Профиль] [ЛС]
    Показать сообщения:    
    Ответить на тему

    Текущее время: Сегодня, в 18:06

    Часовой пояс: GMT + 2



    Вы не можете начинать темы
    Вы не можете отвечать на сообщения
    Вы не можете редактировать свои сообщения
    Вы не можете удалять свои сообщения
    Вы не можете голосовать в опросах
    Вы не можете прикреплять файлы к сообщениям
    Вы не можете скачивать файлы