BitTorrentTracker PerecTracker.org
BitTorrentTracker PerecTracker.org
    
Регистрация  ·  Вход
 
 · 
Забыли пароль?

  • В.И.Шахгильдян.Федеральный центр СПИД. Вопросы диагностики и лечения вторичных заболеваний у больных ВИЧ-инфекцией [2014, видеоматериал для врачей, HDTVRip]

    Ответить на тему
     
    Автор Сообщение

    Columb

    Создавать темы 28-Авг-2014 04:50

           

    [Цитировать]

    В.И.Шахгильдян.Федеральный центр СПИД. Вопросы диагностики и лечения вторичных заболеваний у больных ВИЧ-инфекцией [2014, видеоматериал для врачей, HDTVRip]
    Страна: Россия
    Год выпуска: 2014
    Продолжительность: 02:10:38
    Перевод: Не требуется
    Язык: русский
    Русские субтитры: нет
    Описание: «Актуальные вопросы диагностики и лечения вторичных заболеваний у больных ВИЧ-инфекцией»
    Ведет семинар: старший научный сотрудник Федерального Центра по борьбе со СПИД В.И.Шахгильдян.
    Качество видео: HDTVRip
    Формат видео: MP4
    Видео: AVC,943 Кбит/сек,1280 Х 720 px,16:9,25 кадров/сек
    Аудио: AAC,192 Кбит/сек,2 канала,44,1 КГц

    MediaInfo

    Общее
    Полное имя : C:\Users\User\Desktop\В.И.Шахгильдян. Вопросы диагностики и лечения вторичных заболеваний у больных ВИЧ-инфекцией.2014.mp4
    Формат : MPEG-4
    Профиль формата : Base Media / Version 2
    Идентификатор кодека : mp42
    Размер файла : 1,04 Гбайт
    Продолжительность : 2 ч. 10 м.
    Режим общего битрейта : Переменный
    Общий поток : 1137 Кбит/сек
    Дата кодирования : UTC 2014-05-26 17:19:22
    Дата пометки : UTC 2014-05-26 17:19:22
    gsst : 0
    gstd : 7838103
    gssd : B4A7DAD03MH1408217893251929
    Видео
    Идентификатор : 1
    Формат : AVC
    Формат/Информация : Advanced Video Codec
    Профиль формата : High@L3.1
    Параметр CABAC формата : Да
    Параметр ReFrames формата : 1 кадр
    Идентификатор кодека : avc1
    Идентификатор кодека/Информация : Advanced Video Coding
    Продолжительность : 2 ч. 10 м.
    Битрейт : 943 Кбит/сек
    Максимальный битрейт : 5293 Кбит/сек
    Ширина : 1280 пикселей
    Высота : 720 пикселей
    Соотношение сторон : 16:9
    Режим частоты кадров : Постоянный
    Частота кадров : 25,000 кадров/сек
    Цветовое пространство : YUV
    Субдискретизация насыщенности : 4:2:0
    Битовая глубина : 8 бит
    Тип развёртки : Прогрессивная
    Бит/(Пиксели*Кадры) : 0.041
    Размер потока : 881 Мбайт (83%)
    Дата пометки : UTC 2014-05-26 17:31:19
    Аудио
    Идентификатор : 2
    Формат : AAC
    Формат/Информация : Advanced Audio Codec
    Профиль формата : LC
    Идентификатор кодека : 40
    Продолжительность : 2 ч. 10 м.
    Вид битрейта : Переменный
    Битрейт : 192 Кбит/сек
    Максимальный битрейт : 201 Кбит/сек
    Каналы : 2 канала
    Расположение каналов : Front: L R
    Частота : 44,1 КГц
    Метод сжатия : С потерями
    Размер потока : 179 Мбайт (17%)
    Дата кодирования : UTC 2014-05-26 17:27:40
    Дата пометки : UTC 2014-05-26 17:31:19

    Скриншоты

    Скачать .torrent

    Скачать торрент-файл бесплатно и на максимальной скорости!

    Как скачивать? · Что такое торрент? · Рейтинг и ограничения

    !ВНИМАНИЕ!
    Сайт не распространяет и не хранит электронные версии произведений, а занимается лишь лишь предоставлением доступа к создаваемому пользователями каталогу ссылок на торрент-файлы, которые содержат только списки хеш-сумм, убедительная просьба с жалобами обращаться напрямую к пользователю. Файлы для обмена на трекере предоставлены пользователями сайта, и администрация не несёт ответственности за их содержание. Просьба не заливать файлы, защищенные авторскими правами, а также файлы нелегального содержания!

    [Профиль] [ЛС]
    Показать сообщения:    
    Ответить на тему

    Текущее время: Сегодня, в 16:04

    Часовой пояс: GMT + 2



    Вы не можете начинать темы
    Вы не можете отвечать на сообщения
    Вы не можете редактировать свои сообщения
    Вы не можете удалять свои сообщения
    Вы не можете голосовать в опросах
    Вы не можете прикреплять файлы к сообщениям
    Вы не можете скачивать файлы