BitTorrentTracker PerecTracker.org
BitTorrentTracker PerecTracker.org
    
Регистрация  ·  Вход
 
 · 
Забыли пароль?

  • Свобода слова ICTV выпуск 26.08.14 [Политическое ток-шоу, DVB]

    Ответить на тему
     
    Автор Сообщение

    Columb

    Создавать темы 27-Авг-2014 17:45

           

    [Цитировать]

    Свобода слова ICTV выпуск 26.08.14
    Дата/Год выпуска: 26.08.14
    Страна: Украина
    Язык:Русский,украинский
    Жанр: Политическое ток-шоу
    Продолжительность: 02:05:28
    Телеканал: ICTV
    Описание: B программе «Свобода слова» на телеканале ICTV обсуждался вопрос встречи в Минске, а также начала избирательной кампании на фоне эскалации военных действий на Востоке Украины. К участию в эфире были приглашены политические деятели и эксперты. Одним из спикеров стал спикер Информационно-аналитического центра СНБО Андрей Лысенко
    Сэмпл: http://sendfile.su/1015593
    качество: DVB
    формат: MPG
    Видео: MPEG-2 720x576 4:3 3 455 Kbps 25.000 fps
    Аудио: MP2 128 Kbps 48.0 KHz 2 channels

    MediaInfo

    Format : MPEG-PSFile size : 3.19 GiBDuration : 2h 5mnOverall bit rate mode : VariableOverall bit rate : 3 639 Kbps
    VideoID : 224 (0xE0)Format : MPEG VideoFormat version : Version 2Format profile : Main@MainFormat settings, BVOP : YesFormat settings, Matrix : DefaultFormat settings, GOP : VariableDuration : 2h 5mnBit rate mode : VariableBit rate : 3 455 KbpsMaximum bit rate : 9 500 KbpsWidth : 720 pixelsHeight : 576 pixelsDisplay aspect ratio : 4:3Frame rate : 25.000 fpsStandard : PALColor space : YUVChroma subsampling : 4:2:0Bit depth : 8 bitsScan type : InterlacedScan order : Top Field FirstCompression mode : LossyBits/(Pixel*Frame) : 0.332Time code of first frame : 00:00:00:00Time code source : Group of pictures headerStream size : 3.01 GiB (94%)Color primaries : BT.601 NTSCTransfer characteristics : BT.601Matrix coefficients : BT.601
    AudioID : 192 (0xC0)Format : MPEG AudioFormat version : Version 1Format profile : Layer 2Duration : 2h 5mnBit rate mode : ConstantBit rate : 128 KbpsChannel count : 2 channelsSampling rate : 48.0 KHzCompression mode : LossyStream size : 115 MiB (4%)

    Скриншоты

    Скачать .torrent

    Скачать торрент-файл бесплатно и на максимальной скорости!

    Как скачивать? · Что такое торрент? · Рейтинг и ограничения

    !ВНИМАНИЕ!
    Сайт не распространяет и не хранит электронные версии произведений, а занимается лишь лишь предоставлением доступа к создаваемому пользователями каталогу ссылок на торрент-файлы, которые содержат только списки хеш-сумм, убедительная просьба с жалобами обращаться напрямую к пользователю. Файлы для обмена на трекере предоставлены пользователями сайта, и администрация не несёт ответственности за их содержание. Просьба не заливать файлы, защищенные авторскими правами, а также файлы нелегального содержания!

    [Профиль] [ЛС]
    Показать сообщения:    
    Ответить на тему

    Текущее время: Сегодня, в 12:33

    Часовой пояс: GMT + 2



    Вы не можете начинать темы
    Вы не можете отвечать на сообщения
    Вы не можете редактировать свои сообщения
    Вы не можете удалять свои сообщения
    Вы не можете голосовать в опросах
    Вы не можете прикреплять файлы к сообщениям
    Вы не можете скачивать файлы