Register  ·  Log in
Forgot password?

  • Свобода слова ICTV выпуск 26.08.14 [Политическое ток-шоу, DVB]

    Reply to topic
    Author Message


    Post 27-Aug-2014 18:45



    Свобода слова ICTV выпуск 26.08.14
    Дата/Год выпуска: 26.08.14
    Страна: Украина
    Жанр: Политическое ток-шоу
    Продолжительность: 02:05:28
    Телеканал: ICTV
    Описание: B программе «Свобода слова» на телеканале ICTV обсуждался вопрос встречи в Минске, а также начала избирательной кампании на фоне эскалации военных действий на Востоке Украины. К участию в эфире были приглашены политические деятели и эксперты. Одним из спикеров стал спикер Информационно-аналитического центра СНБО Андрей Лысенко
    качество: DVB
    формат: MPG
    Видео: MPEG-2 720x576 4:3 3 455 Kbps 25.000 fps
    Аудио: MP2 128 Kbps 48.0 KHz 2 channels


    Format : MPEG-PSFile size : 3.19 GiBDuration : 2h 5mnOverall bit rate mode : VariableOverall bit rate : 3 639 Kbps
    VideoID : 224 (0xE0)Format : MPEG VideoFormat version : Version 2Format profile : Main@MainFormat settings, BVOP : YesFormat settings, Matrix : DefaultFormat settings, GOP : VariableDuration : 2h 5mnBit rate mode : VariableBit rate : 3 455 KbpsMaximum bit rate : 9 500 KbpsWidth : 720 pixelsHeight : 576 pixelsDisplay aspect ratio : 4:3Frame rate : 25.000 fpsStandard : PALColor space : YUVChroma subsampling : 4:2:0Bit depth : 8 bitsScan type : InterlacedScan order : Top Field FirstCompression mode : LossyBits/(Pixel*Frame) : 0.332Time code of first frame : 00:00:00:00Time code source : Group of pictures headerStream size : 3.01 GiB (94%)Color primaries : BT.601 NTSCTransfer characteristics : BT.601Matrix coefficients : BT.601
    AudioID : 192 (0xC0)Format : MPEG AudioFormat version : Version 1Format profile : Layer 2Duration : 2h 5mnBit rate mode : ConstantBit rate : 128 KbpsChannel count : 2 channelsSampling rate : 48.0 KHzCompression mode : LossyStream size : 115 MiB (4%)


    Download .torrent

    Download free and at maximum speed!

    How to Download? · What is a torrent? · Ratings and Limitations

    The site does not extend and does not store electronic(digital) versions of products, and only gives access to a reference catalogue created by users on torrent-files which contain only lists of the hash-sums, the earnest entreaty, with complaints(abuse) to access directly to the user. Files for an exchange on tracker are given by users of a site, and the administration does not bear the responsibility for their maintenance. The request to not fill in the files protected by copyrights, and also files of the illegal maintenance!

    [Profile] [PM]
    Display posts from previous:    
    Reply to topic

    The time now is: Today 14:01

    All times are GMT + 3 Hours

    You cannot post new topics in this forum
    You cannot reply to topics in this forum
    You cannot edit your posts in this forum
    You cannot delete your posts in this forum
    You cannot vote in polls in this forum
    You cannot attach files in this forum
    You cannot download files in this forum