BitTorrentTracker PerecTracker.org
BitTorrentTracker PerecTracker.org
    
Регистрация  ·  Вход
 
 · 
Забыли пароль?

  • Замри и гори / Остановись и гори / Halt and Catch Fire / Сезон: 1 / Серии: 1-10 (10) (Хуан Хосе Кампанелла) [2014, Драма, WEB-DL 1080p] MVO (NewStudio) + Original

    Ответить на тему
     
    Автор Сообщение

    Columb

    Создавать темы 27-Авг-2014 14:00

           

    [Цитировать]

    -Замри и гори / Остановись и гори / Halt and Catch Fire-Год выпуска: 2014
    Страна: США
    Жанр: Драма
    Продолжительность: ~43 мин.
    Перевод: Профессиональный (многоголосый закадровый) - NewStudio
    Субтитры: Нет-Режиссёр: Хуан Хосе Кампанелла
    В ролях: Ли Пейс, Скут МакНэйри, Маккензи Дэвис, Керри Бише, Тоби Хасс-Описание:
    Сюжет разворачивается в 1980-х. Сериал рассказывает о компьютерном буме от лица мечтателя, инженера и вундеркинда, чьи инновации столкнулись с корпоративными гигантами того времени.-Релиз группы
    Перевод: Юля Мейер
    Постер: Андрей Шапал-Качество: WEB-DL 1080p
    Контейнер: MKV
    Видео кодек: H.264
    Аудио кодек: AC3
    Видео: 1920x1080 (16:9), 23,976 fps, ~4651 kbps, ~0,093 bit/pixel
    Аудио #1: 48 kHz, 6ch, ~384.00 kbps | Russian | NewStudio
    Аудио #2: 48 kHz, 6ch, ~384.00 kbps | English | Original
    Субтитры: отсутствуют-Сэмпл | Все раздачи сериала-

    Скриншоты

    -

    MediaInfo

    Общее
    Уникальный идентификатор : 252375697220526531979949049285068929854 (0xBDDDCA8F715494A9A0F9CC883E2B3B3E)
    Формат : Matroska
    Версия формата : Version 2
    Размер файла : 1,84 Гбайт
    Продолжительность : 47 м.
    Общий поток : 5521 Кбит/сек
    Дата кодирования : UTC 2014-06-06 14:12:02
    Программа кодирования : mkvmerge v2.9.9 ('Tutu') built on Nov 25 2009 21:13:32
    Библиотека кодирования : libebml v0.7.9 + libmatroska v0.8.1
    Видео
    Идентификатор : 1
    Формат : AVC
    Формат/Информация : Advanced Video Codec
    Профиль формата : High@L4.0
    Параметр CABAC формата : Да
    Параметр ReFrames формата : 4 кадра
    Идентификатор кодека : V_MPEG4/ISO/AVC
    Продолжительность : 47 м.
    Битрейт : 4643 Кбит/сек
    Ширина : 1920 пикселей
    Высота : 1080 пикселей
    Соотношение сторон : 16:9
    Режим частоты кадров : Постоянный
    Частота кадров : 23,976 кадра/сек
    Цветовое пространство : YUV
    Субдискретизация насыщенности : 4:2:0
    Битовая глубина : 8 бит
    Тип развёртки : Прогрессивная
    Бит/(Пиксели*Кадры) : 0.093
    Размер потока : 1,55 Гбайт (84%)
    Язык : English
    Default : Нет
    Forced : Нет
    Основные цвета : BT.709
    Характеристики трансфера : BT.709
    Коэффициенты матрицы : BT.709
    Аудио #1
    Идентификатор : 2
    Формат : AC-3
    Формат/Информация : Audio Coding 3
    Расширение режима : CM (complete main)
    Параметр Endianness формата : Big
    Идентификатор кодека : A_AC3
    Продолжительность : 47 м.
    Вид битрейта : Постоянный
    Битрейт : 384 Кбит/сек
    Каналы : 6 каналов
    Расположение каналов : Front: L C R, Side: L R, LFE
    Частота : 48,0 КГц
    Битовая глубина : 16 бит
    Метод сжатия : С потерями
    Размер потока : 131 Мбайт (7%)
    Язык : Russian
    Default : Да
    Forced : Да
    Аудио #2
    Идентификатор : 3
    Формат : AC-3
    Формат/Информация : Audio Coding 3
    Расширение режима : CM (complete main)
    Параметр Endianness формата : Big
    Идентификатор кодека : A_AC3
    Продолжительность : 47 м.
    Вид битрейта : Постоянный
    Битрейт : 384 Кбит/сек
    Каналы : 6 каналов
    Расположение каналов : Front: L C R, Side: L R, LFE
    Частота : 48,0 КГц
    Битовая глубина : 16 бит
    Метод сжатия : С потерями
    Размер потока : 131 Мбайт (7%)
    Язык : English
    Default : Нет
    Forced : Нет
    -
    Скачать .torrent

    Скачать торрент-файл бесплатно и на максимальной скорости!

    Как скачивать? · Что такое торрент? · Рейтинг и ограничения

    !ВНИМАНИЕ!
    Сайт не распространяет и не хранит электронные версии произведений, а занимается лишь лишь предоставлением доступа к создаваемому пользователями каталогу ссылок на торрент-файлы, которые содержат только списки хеш-сумм, убедительная просьба с жалобами обращаться напрямую к пользователю. Файлы для обмена на трекере предоставлены пользователями сайта, и администрация не несёт ответственности за их содержание. Просьба не заливать файлы, защищенные авторскими правами, а также файлы нелегального содержания!

    [Профиль] [ЛС]
    Показать сообщения:    
    Ответить на тему

    Текущее время: Сегодня, в 08:14

    Часовой пояс: GMT + 2



    Вы не можете начинать темы
    Вы не можете отвечать на сообщения
    Вы не можете редактировать свои сообщения
    Вы не можете удалять свои сообщения
    Вы не можете голосовать в опросах
    Вы не можете прикреплять файлы к сообщениям
    Вы не можете скачивать файлы