BitTorrentTracker PerecTracker.org
BitTorrentTracker PerecTracker.org
    
Регистрация  ·  Вход
 
 · 
Забыли пароль?

  • Аватар: Легенда о Корре / The Legend of Korra / Сезон: 3 / Серии: 13 из 13 (Майкл Данте Димартино, Брайан Кониецко / Michael Dante DiMartino, Bryan Konietzko) [2014, мультсериал, приключения, семейный, фэнтези, HDTVRip] DVO [LE-Production]

    Ответить на тему
     
    Автор Сообщение

    Columb

    Создавать темы 27-Авг-2014 08:47

           

    [Цитировать]

    Аватар: Легенда о Корре / The Legend of Korra
    Страна: США
    Жанр: мультсериал, приключения, семейный, фэнтези
    Продолжительность: ~ 23 минуты
    Год выпуска: 2014
    Перевод: Любительский (двухголосый закадровый)[LE-Production]
    Русские субтитры: нет
    Режиссёр: Майкл Данте Димартино, Брайан Кониецко / Michael Dante DiMartino, Bryan Konietzko
    Роли озвучивали: Тимиркан Сиюхов и Маргарита Щелкунова
    Описание: Мир вступает в новую эру! Гармоническое сближение вызвало сдвиг в энергетическом поле планеты, а Республиканский город спустя недели всё ещё не оправился после битвы Корры и УнаВаату. Весь город зарос и превратился в джунгли, которые новоприбывшие духи считают своим домом. Но не ждут ли наш город ещё какие-то перемены?
    Список серий:
    01. Глоток свежего воздуха
    02. Перерождение
    03. Королева Земли
    04. В опасности
    05. Клан Металла
    06. Старые раны
    07. Истинные маги воздуха
    08. Ужас внутри
    09. Надзор
    10. Да здравствует Королева!
    11. Ультиматум
    12. Вступи в пустоту
    13. Яд Красного лотоса
    Все раздачи мультсериала
    Семпл: http://sendfile.su/1015384
    Качество: HDTVRip
    Формат: AVI
    Видео: XVID, 720х400 (16:9), 23.976 fps, ~900 kbps
    Аудио: MP3, 48000 Hz, 2 ch, 192 kbps
    Субтитры: отсутствуют

    Подробные технические данные

    Формат : AVIФормат/Информация : Audio Video InterleaveРазмер файла : 179 МбайтПродолжительность : 22 м.Общий поток : 1125 Кбит/секПрограмма кодирования : MEncoder SVN-r33883(20110719-gcc4.5.2)Библиотека кодирования : MPlayer
    ВидеоИдентификатор : 0Формат : MPEG-4 VisualПрофиль формата : Advanced Simple@L5Параметр BVOP формата : 2Параметр QPel формата : НетПараметр GMC формата : Без точки переходаПараметр матрицы формата : Default (H.263)Идентификатор кодека : XVIDИдентификатор кодека/Подсказка : XviDПродолжительность : 22 м.Битрейт : 900 Кбит/секШирина : 720 пикселейВысота : 400 пикселейСоотношение сторон : 16:9Частота кадров : 23,976 кадра/секЦветовое пространство : YUVСубдискретизация насыщенности : 4:2:0Битовая глубина : 8 битТип развёртки : ПрогрессивнаяМетод сжатия : С потерямиБит/(Пиксели*Кадры) : 0.133Размер потока : 146 Мбайт (82%)Библиотека кодирования : XviD 1.2.1 (UTC 2008-12-04)
    АудиоИдентификатор : 1Формат : MPEG AudioВерсия формата : Version 1Профиль формата : Layer 3Режим : Joint stereoРасширение режима : MS StereoИдентификатор кодека : 55Идентификатор кодека/Подсказка : MP3Продолжительность : 22 м.Вид битрейта : ПостоянныйБитрейт : 192 Кбит/секКаналы : 2 каналаЧастота : 48,0 КГцМетод сжатия : С потерямиЗадержка видео : 42 мс.Размер потока : 30,5 Мбайт (17%)Выравнивание : Соединение по промежуткамПродолжительность промежутка : 24 мс. (0,58 видеокадр)Время предзагрузки промежутка : 504 мс.Библиотека кодирования : LAME3.98.4

    Скриншоты

    Скачать .torrent

    Скачать торрент-файл бесплатно и на максимальной скорости!

    Как скачивать? · Что такое торрент? · Рейтинг и ограничения

    !ВНИМАНИЕ!
    Сайт не распространяет и не хранит электронные версии произведений, а занимается лишь лишь предоставлением доступа к создаваемому пользователями каталогу ссылок на торрент-файлы, которые содержат только списки хеш-сумм, убедительная просьба с жалобами обращаться напрямую к пользователю. Файлы для обмена на трекере предоставлены пользователями сайта, и администрация не несёт ответственности за их содержание. Просьба не заливать файлы, защищенные авторскими правами, а также файлы нелегального содержания!

    [Профиль] [ЛС]
    Показать сообщения:    
    Ответить на тему

    Текущее время: Сегодня, в 12:31

    Часовой пояс: GMT + 2



    Вы не можете начинать темы
    Вы не можете отвечать на сообщения
    Вы не можете редактировать свои сообщения
    Вы не можете удалять свои сообщения
    Вы не можете голосовать в опросах
    Вы не можете прикреплять файлы к сообщениям
    Вы не можете скачивать файлы