BitTorrentTracker PerecTracker.org
BitTorrentTracker PerecTracker.org
    
Регистрация  ·  Вход
 
 · 
Забыли пароль?

  • Тупой Старбакс / Dumb Starbucks из цикла Nathan For You (Нэйтан Филдер) [2014, Документалистика, юмор, mockumentary, HDTVRip] OzzTv

    Ответить на тему
     
    Автор Сообщение

    Columb

    Создавать темы 26-Авг-2014 09:55

           

    [Цитировать]

    Тупой Старбакс / Dumb Starbucks из цикла Nathan For You (OzzTv)
    Дата/Год выпуска: 2014
    Страна: США
    Жанр: Документалистика, юмор, мокьюментари
    Продолжительность: 00:21:00
    Перевод: Профессиональный (одноголосый, закадровый)
    Доп. инфо о переводе: OzzTv
    Русские субтитры: есть
    Формат субтитров: softsub (SRT)
    Оригинальная аудиодорожка: английский
    Режиссер: Нэйтан Филдер
    Телеканал: Comedy Central
    Описание: Полгода назад в новостные каналы Америки и других стран попала история о с виду непримечательном кафе, которое на поверку оказалось... "Тупым Старбаксом". За несколько дней данное заведение наделало немало шуму в СМИ. Всех интересовало, что это за фрукт такой и каким образом "настоящий" Старбакс, печально известный исками против плагиатчиков, не добрались еще до хозяев новой кофейни.
    О чем шоу:
    "Нэйтан для Вас" — теле-шоу на канале Comedy Central. В нем комик Нэйтан Филдер помогает владельцам малого бизнеса, с абсолютно невозмутимым лицом предлагая им иногда просто глупые, иногда очень, а иногда ну вообще такие глупые идеи, что хоть стой, хоть падай. На этот раз, правда, задумка комика зашла чуть дальше, чем мог кто-либо предполагать.
    Доп. информация: Релиз OzzTv
    Текст читает Алексей Серегин
    Перевод Дмитрия Какабадзе
    качество: HDTVRip
    формат: MKV
    Видео: MPEG4, 1280x720 px, (16:9), 2076 kbps, 23.976 fps
    Аудио: MP3, 192 kbps, 44.1 kHz, 2 ch
    Аудио 2: AC3, 48 kHz, 384 kbps, Front: L, R

    Список выпусков/серий

    Сезон 2, Эпизод 5

    MediaInfo

    GeneralUnique ID : 239196155192642829690136651045370400558 (0xB3F380F82BA35E07B116FF6A73250F2E)Complete name : C:\Mitya\Ozz.TV\Nathan.For.You.S02E05.720p.ENGRUS.Ozz.Tv.mkvFormat : MatroskaFormat version : Version 2File size : 407 MiBDuration : 21mn 0sOverall bit rate : 2 706 KbpsEncoded date : UTC 2014-08-25 12:21:10Writing application : mkvmerge v4.5.0 ('Speed of Light') сборка от Feb 6 2011 12:51:39Writing library : libebml v1.2.0 + libmatroska v1.1.0
    VideoID : 2Format : AVCFormat/Info : Advanced Video CodecFormat profile : High@L4.1Format settings, CABAC : YesFormat settings, ReFrames : 5 framesMuxing mode : Header strippingCodec ID : V_MPEG4/ISO/AVCDuration : 21mn 0sBit rate : 2 076 KbpsWidth : 1 280 pixelsHeight : 720 pixelsDisplay aspect ratio : 16:9Frame rate mode : ConstantFrame rate : 23.976 fpsColor space : YUVChroma subsampling : 4:2:0Bit depth : 8 bitsScan type : ProgressiveBits/(Pixel*Frame) : 0.094Stream size : 312 MiB (77%)Writing library : x264 core 142 r2431 ac76440Encoding settings : cabac=1 / ref=5 / deblock=1:-1:-1 / analyse=0x3:0x113 / me=umh / subme=8 / psy=1 / psy_rd=1.00:0.00 / mixed_ref=1 / me_range=16 / chroma_me=1 / trellis=1 / 8x8dct=1 / cqm=0 / deadzone=21,11 / fast_pskip=1 / chroma_qp_offset=-2 / threads=18 / lookahead_threads=4 / sliced_threads=0 / nr=0 / decimate=1 / interlaced=0 / bluray_compat=0 / constrained_intra=0 / bframes=5 / b_pyramid=2 / b_adapt=2 / b_bias=0 / direct=3 / weightb=1 / open_gop=0 / weightp=2 / keyint=250 / keyint_min=23 / scenecut=40 / intra_refresh=0 / rc_lookahead=50 / rc=crf / mbtree=1 / crf=20.0 / qcomp=0.60 / qpmin=0 / qpmax=69 / qpstep=4 / ip_ratio=1.40 / aq=1:1.00Default : NoForced : No
    Audio #1ID : 1Format : MPEG AudioFormat version : Version 1Format profile : Layer 3Muxing mode : Header strippingCodec ID : A_MPEG/L3Codec ID/Hint : MP3Duration : 21mn 0sBit rate mode : ConstantBit rate : 192 KbpsChannel(s) : 2 channelsSampling rate : 44.1 KHzCompression mode : LossyDelay relative to video : -83msStream size : 28.9 MiB (7%)Default : YesForced : No
    Audio #2ID : 3Format : AC-3Format/Info : Audio Coding 3Mode extension : CM (complete main)Format settings, Endianness : BigMuxing mode : Header strippingCodec ID : A_AC3Duration : 21mn 0sBit rate mode : ConstantBit rate : 384 KbpsChannel(s) : 2 channelsChannel positions : Front: L RSampling rate : 48.0 KHzBit depth : 16 bitsCompression mode : LossyDelay relative to video : -83msStream size : 57.7 MiB (14%)Default : NoForced : No

    Скриншоты

    Скачать .torrent

    Скачать торрент-файл бесплатно и на максимальной скорости!

    Как скачивать? · Что такое торрент? · Рейтинг и ограничения

    !ВНИМАНИЕ!
    Сайт не распространяет и не хранит электронные версии произведений, а занимается лишь лишь предоставлением доступа к создаваемому пользователями каталогу ссылок на торрент-файлы, которые содержат только списки хеш-сумм, убедительная просьба с жалобами обращаться напрямую к пользователю. Файлы для обмена на трекере предоставлены пользователями сайта, и администрация не несёт ответственности за их содержание. Просьба не заливать файлы, защищенные авторскими правами, а также файлы нелегального содержания!

    [Профиль] [ЛС]
    Показать сообщения:    
    Ответить на тему

    Текущее время: Сегодня, в 20:48

    Часовой пояс: GMT + 2



    Вы не можете начинать темы
    Вы не можете отвечать на сообщения
    Вы не можете редактировать свои сообщения
    Вы не можете удалять свои сообщения
    Вы не можете голосовать в опросах
    Вы не можете прикреплять файлы к сообщениям
    Вы не можете скачивать файлы