BitTorrentTracker PerecTracker.org
BitTorrentTracker PerecTracker.org
    
Регистрация  ·  Вход
 
 · 
Забыли пароль?

  • Концерт "Океан Эльзы" во Львове [24.08.2014, Концерт, DVB]

    Ответить на тему
     
    Автор Сообщение

    Columb

    Создавать темы 25-Авг-2014 19:05

           

    [Цитировать]

    Концерт "Океан Эльзы" во Львове
    Дата/Год выпуска: 24.08.2014
    Страна: Украина
    Жанр: Концерт
    Продолжительность: 03:13:03
    Перевод: Не требуется
    Оригинальная аудиодорожка: украинский
    Режиссер: ТОВ "ТРК "Студия 1+1"
    Телеканал: 1+1
    Описание: Концерт "Океан Эльзы" во Львове.
    Rip by
    Качество: DVB
    Формат: MPG
    Видео: MPEG2 704x576 25fps 4999kbps
    Аудио: MPa 48000Hz stereo 192kbps

    Треклист

    1. Вставай.
    2. Майже весна.
    3. Більше для нас.
    4. На лінії вогню.
    5. Rendez-Vous.
    6. Джульєтта.
    7. Ти собі сама.
    8. Незалежність.
    9. Коли тобі важко.
    10. Лелеки.
    11. Стріляй.
    12. Відпусти.
    13. Відчуваю.
    14. Фіалки.
    15. Коли тебе нема.
    16. Друг.
    17. Холодно.
    18. Квітка.
    19. Вище неба.
    20. Зелені очі.
    21. На небі.
    22. Стіна.
    23. Той день.
    24. Гімн.
    25. Не питай (Просто мені).
    26. Така, як ти.
    27. Без бою.
    28. Янанебібув.
    29. Я так хочу.
    30. 911.
    31. Все буде добре.
    32. Там де нас нема.
    33. Обійми.

    MI

    General
    Complete name : C:\Концерт Океан Эльзы 24.08.2014.mpg
    Format : MPEG-PS
    File size : 7.14 GiB
    Duration : 3h 13mn
    Overall bit rate mode : Variable
    Overall bit rate : 5 296 Kbps
    Writing library : (c) 1998-2010 Womble Multimedia, Inc. / MPEG Video Wizard DVD 5.0.0.114 (01/2010) / Nov 13 2010
    Video
    ID : 224 (0xE0)
    Format : MPEG Video
    Format version : Version 2
    Format profile : Main@Main
    Format settings, BVOP : Yes
    Format settings, Matrix : Custom
    Format settings, GOP : Variable
    Duration : 3h 13mn
    Bit rate mode : Variable
    Bit rate : 4 999 Kbps
    Maximum bit rate : 15.0 Mbps
    Width : 704 pixels
    Height : 576 pixels
    Display aspect ratio : 4:3
    Frame rate : 25.000 fps
    Standard : PAL
    Color space : YUV
    Chroma subsampling : 4:2:0
    Bit depth : 8 bits
    Scan type : Interlaced
    Scan order : Top Field First
    Compression mode : Lossy
    Bits/(Pixel*Frame) : 0.493
    Time code of first frame : 00:00:00:00
    Time code source : Group of pictures header
    Stream size : 6.74 GiB (94%)
    Writing library : (c) 1998-2010 Womble Multimedia, Inc. / MPEG Video Wizard DVD 5.0.0.114 (01/2010) / Nov 13 2010
    Audio
    ID : 192 (0xC0)
    Format : MPEG Audio
    Format version : Version 1
    Format profile : Layer 2
    Duration : 3h 13mn
    Bit rate mode : Constant
    Bit rate : 192 Kbps
    Channel(s) : 2 channels
    Sampling rate : 48.0 KHz
    Compression mode : Lossy
    Stream size : 265 MiB (4%)

    Скриншоты

    Скачать .torrent

    Скачать торрент-файл бесплатно и на максимальной скорости!

    Как скачивать? · Что такое торрент? · Рейтинг и ограничения

    !ВНИМАНИЕ!
    Сайт не распространяет и не хранит электронные версии произведений, а занимается лишь лишь предоставлением доступа к создаваемому пользователями каталогу ссылок на торрент-файлы, которые содержат только списки хеш-сумм, убедительная просьба с жалобами обращаться напрямую к пользователю. Файлы для обмена на трекере предоставлены пользователями сайта, и администрация не несёт ответственности за их содержание. Просьба не заливать файлы, защищенные авторскими правами, а также файлы нелегального содержания!

    [Профиль] [ЛС]
    Показать сообщения:    
    Ответить на тему

    Текущее время: Сегодня, в 22:26

    Часовой пояс: GMT + 2



    Вы не можете начинать темы
    Вы не можете отвечать на сообщения
    Вы не можете редактировать свои сообщения
    Вы не можете удалять свои сообщения
    Вы не можете голосовать в опросах
    Вы не можете прикреплять файлы к сообщениям
    Вы не можете скачивать файлы