BitTorrentTracker PerecTracker.org
BitTorrentTracker PerecTracker.org
    
Регистрация  ·  Вход
 
 · 
Забыли пароль?

  • Уральские пельмени. Грачи пролетели! (команда "Уральские пельмени") [2014, Юмор, WEB-DLRip[720p]]

    Ответить на тему
     
    Автор Сообщение

    Columb

    Создавать темы 23-Авг-2014 21:07

           

    [Цитировать]

    Уральские пельмени. Грачи пролетели!
    Дата/Год выпуска: 2014
    Страна: Россия
    Жанр: Юмор
    Продолжительность: 2 x ~ 00:48:30
    Перевод: Не требуется
    Режиссер: команда "Уральские пельмени"
    Описание: "Грачи пролетели" - комедийное телевизионное шоу "Уральских пельменей", которое расскажет о последствиях зимних холодов и настоящих весенних ожиданиях. Новое шоу Уральских пельменей очень смешное, и в нём много декораций и костюмов, а поэтому смотреть такое шоу очень интересно.
    качество: WEB-DLRip[720p]
    формат: MKV
    Видео: 1280x720,MPEG-4 AVC/H.264, 2660 kb/s
    Аудио: AC3, 2 ch, 128 kb/s

    Список выпусков/серий

    Часть №1-2 из 2

    MediaInfo

    ОбщееУникальный идентификатор : 70757671377165919834063810667081380589 (0x353B6E8B1A4DF05A1B36F4DA616C32ED)Полное имя : D:\Раздачи\Уральские пельмени. Грачи пролетели. Часть 1 (2014.03.14)\Уральские пельмени. Грачи пролетели. Часть 1 (2014.03.14).mkvФормат : MatroskaВерсия формата : Version 2Размер файла : 1002 МбайтПродолжительность : 49 м.Общий поток : 2845 Кбит/секПрограмма кодирования : Lavf54.63.104Библиотека кодирования : Lavf54.63.104
    ВидеоИдентификатор : 1Формат : AVCФормат/Информация : Advanced Video CodecПрофиль формата : High@L3.1Параметр CABAC формата : ДаПараметр ReFrames формата : 1 кадрПараметр GOP формата : M=1, N=60Идентификатор кодека : V_MPEG4/ISO/AVCПродолжительность : 49 м.Битрейт : 2660 Кбит/секШирина : 1280 пикселейВысота : 720 пикселейСоотношение сторон : 16:9Режим частоты кадров : ПостоянныйЧастота кадров : 25,000 кадров/секЦветовое пространство : YUVСубдискретизация насыщенности : 4:2:0Битовая глубина : 8 битТип развёртки : ПрогрессивнаяБит/(Пиксели*Кадры) : 0.115Размер потока : 937 Мбайт (94%)Default : ДаForced : Нет
    АудиоИдентификатор : 2Формат : AC-3Формат/Информация : Audio Coding 3Расширение режима : CM (complete main)Параметр Endianness формата : BigИдентификатор кодека : A_AC3Продолжительность : 49 м.Вид битрейта : ПостоянныйБитрейт : 128 Кбит/секКаналы : 2 каналаРасположение каналов : Front: L RЧастота : 44,1 КГцБитовая глубина : 16 битМетод сжатия : С потерямиРазмер потока : 45,1 Мбайт (4%)Язык : unknownDefault : ДаForced : Нет

    Скриншоты

    Скачать .torrent

    Скачать торрент-файл бесплатно и на максимальной скорости!

    Как скачивать? · Что такое торрент? · Рейтинг и ограничения

    !ВНИМАНИЕ!
    Сайт не распространяет и не хранит электронные версии произведений, а занимается лишь лишь предоставлением доступа к создаваемому пользователями каталогу ссылок на торрент-файлы, которые содержат только списки хеш-сумм, убедительная просьба с жалобами обращаться напрямую к пользователю. Файлы для обмена на трекере предоставлены пользователями сайта, и администрация не несёт ответственности за их содержание. Просьба не заливать файлы, защищенные авторскими правами, а также файлы нелегального содержания!

    [Профиль] [ЛС]
    Показать сообщения:    
    Ответить на тему

    Текущее время: Сегодня, в 20:00

    Часовой пояс: GMT + 2



    Вы не можете начинать темы
    Вы не можете отвечать на сообщения
    Вы не можете редактировать свои сообщения
    Вы не можете удалять свои сообщения
    Вы не можете голосовать в опросах
    Вы не можете прикреплять файлы к сообщениям
    Вы не можете скачивать файлы