Register  ·  Log in
Forgot password?

  • Собчак живьём. Владимир Жириновский [20.08.2014, Интервью, SATRip]

    Reply to topic
    Author Message


    Post 23-Aug-2014 08:55



    Собчак живьём. Владимир Жириновский
    Дата/Год выпуска: 20.08.2014
    Страна: Россия
    Жанр: Интервью
    Продолжительность: 00:58:39
    Перевод: Не требуется
    Телеканал: Дождь
    Описание: Интервью Владимира Жириновского Ксении Собчак.
    качество: SATRip
    формат: MKV
    Видео: MPEG-4 AVC, 1711 Кбит/с, 1280x720, 25,000 кадров/сек
    Аудио: MP3, 2 ch, 320 Кбит/с, 44,1 КГц


    I:\Собчак живьём. Владимир Жириновский\Sobchak 20.08.mkv General Unique ID : 168348648403719580577546155723716462494 (0x7EA6C532C2870C1E037BA147C20E879E) Complete name : I:\Собчак живьём. Владимир Жириновский\Sobchak 20.08.mkv Format : Matroska Format version : Version 2 File size : 870 MiB Duration : 58mn 39s Overall bit rate : 2 073 Kbps Writing application : Lavf51.12.1 Writing library : Lavf51.12.1 Video #1 ID : 1 Format : AVC Format/Info : Advanced Video Codec Format profile : Baseline@L3.1 Format settings, CABAC : No Format settings, ReFrames : 1 frame Format settings, GOP : M=1, N=12 Codec ID : V_MPEG4/ISO/AVC Duration : 58mn 39s Bit rate : 1 711 Kbps Width : 1 280 pixels Height : 720 pixels Display aspect ratio : 16:9 Frame rate mode : Constant Frame rate : 25.000 fps Color space : YUV Chroma subsampling : 4:2:0 Bit depth : 8 bits Scan type : Progressive Bits/(Pixel*Frame) : 0.074 Stream size : 718 MiB (83%) Default : Yes Forced : No Audio #2 ID : 2 Format : MPEG Audio Format version : Version 1 Format profile : Layer 3 Mode : Joint stereo Codec ID : A_MPEG/L3 Codec ID/Hint : MP3 Duration : 58mn 39s Bit rate mode : Constant Bit rate : 320 Kbps Channel count : 2 channels Sampling rate : 44.1 KHz Compression mode : Lossy Stream size : 134 MiB (15%) Writing library : LAME3.97 Default : Yes Forced : No


    Download .torrent

    Download free and at maximum speed!

    How to Download? · What is a torrent? · Ratings and Limitations

    The site does not extend and does not store electronic(digital) versions of products, and only gives access to a reference catalogue created by users on torrent-files which contain only lists of the hash-sums, the earnest entreaty, with complaints(abuse) to access directly to the user. Files for an exchange on tracker are given by users of a site, and the administration does not bear the responsibility for their maintenance. The request to not fill in the files protected by copyrights, and also files of the illegal maintenance!

    [Profile] [PM]
    Display posts from previous:    
    Reply to topic

    The time now is: Today 13:58

    All times are GMT + 3 Hours

    You cannot post new topics in this forum
    You cannot reply to topics in this forum
    You cannot edit your posts in this forum
    You cannot delete your posts in this forum
    You cannot vote in polls in this forum
    You cannot attach files in this forum
    You cannot download files in this forum