BitTorrentTracker PerecTracker.org
BitTorrentTracker PerecTracker.org
    
Регистрация  ·  Вход
 
 · 
Забыли пароль?

  • Леонид Каневский. Безнадежный счастливчик (Михаил Ананьев) [2014, Документальный, биография, искусство, SATRip]

    Ответить на тему
     
    Автор Сообщение

    Columb

    Создавать темы 22-Авг-2014 16:31

           

    [Цитировать]

    Леонид Каневский. Безнадежный счастливчик
    Дата/Год выпуска: 2014
    Страна: Россия, ООО "Студия 8"
    Жанр: Документальный, биография, искусство
    Продолжительность: 00:39:04
    Перевод: Не требуется
    Русские субтитры: нет
    Режиссер: Михаил Ананьев
    Описание: Знаменитому контрабандисту из фильма "Бриллиантовая рука", известному актёру и телеведущему Леониду Каневскому 2 мая исполняется 75 лет. Счастливый случай не раз играл в его жизни решающую роль. Но сам он уверен, что случайность хороша лишь тогда, когда умеешь ею воспользоваться.
    качество: SATRip
    формат: AVI
    Видео: 704x448 (1.57:1), 25 fps, XviD build 50 ~1597 kbps avg, 0.20 bit/pixel
    Аудио: 48 kHz, MPEG Layer 3, 2 ch, ~128.00 kbps avg

    MediaInfo

    Complete name : D:\Музыкальные\Леонид Каневский.Безнадежный счастливчик.2014.SATRip.aviFormat : AVIFormat/Info : Audio Video InterleaveFile size : 485 MiBDuration : 39mn 4sOverall bit rate : 1 736 KbpsWriting application : VirtualDubMod 1.5.10.3 | www.virtualdub-fr.org || (build 2550/release)Writing library : VirtualDubMod build 2550/release
    VideoID : 0Format : MPEG-4 VisualFormat profile : Advanced Simple@L5Format settings, BVOP : 2Format settings, QPel : NoFormat settings, GMC : No warppointsFormat settings, Matrix : Default (MPEG)Codec ID : XVIDCodec ID/Hint : XviDDuration : 39mn 4sBit rate : 1 598 KbpsWidth : 704 pixelsHeight : 448 pixelsDisplay aspect ratio : 1.571Frame rate : 25.000 fpsColor space : YUVChroma subsampling : 4:2:0Bit depth : 8 bitsScan type : ProgressiveCompression mode : LossyBits/(Pixel*Frame) : 0.203Stream size : 447 MiB (92%)Writing library : XviD 1.2.1 (UTC 2008-12-04)
    AudioID : 1Format : MPEG AudioFormat version : Version 1Format profile : Layer 3Codec ID : 55Codec ID/Hint : MP3Duration : 39mn 4sBit rate mode : ConstantBit rate : 128 KbpsChannel(s) : 2 channelsSampling rate : 48.0 KHzCompression mode : LossyStream size : 35.8 MiB (7%)Alignment : Aligned on interleavesInterleave, duration : 40 ms (1.00 video frame)Interleave, preload duration : 504 msWriting library : LAME3.99rEncoding settings : -m s -V 4 -q 2 -lowpass 17 -b 128

    Скриншоты

    Скачать .torrent

    Скачать торрент-файл бесплатно и на максимальной скорости!

    Как скачивать? · Что такое торрент? · Рейтинг и ограничения

    !ВНИМАНИЕ!
    Сайт не распространяет и не хранит электронные версии произведений, а занимается лишь лишь предоставлением доступа к создаваемому пользователями каталогу ссылок на торрент-файлы, которые содержат только списки хеш-сумм, убедительная просьба с жалобами обращаться напрямую к пользователю. Файлы для обмена на трекере предоставлены пользователями сайта, и администрация не несёт ответственности за их содержание. Просьба не заливать файлы, защищенные авторскими правами, а также файлы нелегального содержания!

    [Профиль] [ЛС]
    Показать сообщения:    
    Ответить на тему

    Текущее время: Сегодня, в 10:46

    Часовой пояс: GMT + 2



    Вы не можете начинать темы
    Вы не можете отвечать на сообщения
    Вы не можете редактировать свои сообщения
    Вы не можете удалять свои сообщения
    Вы не можете голосовать в опросах
    Вы не можете прикреплять файлы к сообщениям
    Вы не можете скачивать файлы