Register  ·  Log in
Forgot password?

  • Отчаянные герои: Все звёзды / Total Drama All-Stars / Сезон: 5 / Серии: 1 - 13 из 13 (Дженнифер Перч / Jennifer Perch) [2014, Комедия, Приключения, DVB] Dub

    Reply to topic
    Author Message


    Post 22-Aug-2014 13:54



    Отчаянные герои: Все звёзды / Total Drama All-Stars
    Страна: США
    Жанр: Комедия, Приключения
    Продолжительность: 00:21:00
    Год выпуска: 2014
    Перевод: Профессиональный (дублированный)
    Русские субтитры: нет
    Режиссёр: Дженнифер Перч / Jennifer Perch
    Описание: Вымышленное реалити-шоу, в котором участвует 14 подростков, возвращающихся в Лагерь Ваванаква — вымышленный остров, расположенный в неуказанной области в Онтарио. В начале сезона, четырнадцать участников равномерно распределены на две команды: Героические Хомяки и Подлые Стервятники.
    В каждой серии обе команды должны пройти испытание, в котором один или более участников могут выиграть иммунитет для своей команды. Выигравшая команда проводит ночь в Спа-Отеле, а проигравшая команда приглашается на Церемонию Ликвидации, где они должны проголосовать против одного из участников команды в будке признаний. Участник, набравший большинство голосов, выбывает из игры.

    Список серий

    S 01 Ep 01 Heroes vs. Villains
    S 01 Ep 02 Evil Dread
    S 01 Ep 03 Saving Private Leechball
    S 01 Ep 04 Food Fright
    S 01 Ep 05 Moon Madness
    S 01 Ep 06 No Eggspects The Spanish Opposition
    S 01 Ep 07 Suckers Punched
    S 01 Ep 08 You Regatta Be Kidding Me
    S 01 Ep 09 Zeek and Ye Shall Find
    S 01 Ep 10 The Obsta-kill Kourse
    S 01 Ep 11 Sundae Muddy Sundae
    S 01 Ep 12 The Bold and the Booty-ful
    S 01 Ep 13 The Final Wreck-ening
    Доп. информация: Спасибо за недостающие серии saylione
    Качество: DVB
    Формат: mpg
    Видео: MPEG2 Video 720x576 (4:3) 25fps [V: mpeg2 main, yuv420p, 720x576]
    Аудио: MPEG Audio 48000Hz stereo 192kbps [A: mp2, 48000 Hz, stereo, 192 kb/s]
    Субтитры: отсутствуют"

    Подробные технические данные

    GeneralComplete name : C:\Users\Андрей\Desktop\Total Drama All-Stars\S 01 Ep 01 Heroes vs. Villains.mpgFormat : MPEG-PSFile size : 345 MiBDuration : 20mn 29sOverall bit rate mode : VariableOverall bit rate : 2 353 Kbps
    VideoID : 224 (0xE0)Format : MPEG VideoFormat version : Version 2Format profile : Main@MainFormat settings, BVOP : NoFormat settings, Matrix : CustomFormat settings, GOP : M=3, N=12Duration : 20mn 29sBit rate mode : VariableBit rate : 2 115 KbpsMaximum bit rate : 5 000 KbpsWidth : 720 pixelsHeight : 576 pixelsDisplay aspect ratio : 4:3Frame rate : 25.000 fpsStandard : PALColor space : YUVChroma subsampling : 4:2:0Bit depth : 8 bitsScan type : InterlacedScan order : Top Field FirstCompression mode : LossyBits/(Pixel*Frame) : 0.204Time code of first frame : 00:00:00:00Time code source : Group of pictures headerStream size : 310 MiB (90%)
    AudioID : 192 (0xC0)Format : MPEG AudioFormat version : Version 1Format profile : Layer 2Duration : 20mn 29sBit rate mode : ConstantBit rate : 192 KbpsChannel(s) : 2 channelsSampling rate : 48.0 KHzCompression mode : LossyDelay relative to video : -40msStream size : 28.1 MiB (8%)


    Download .torrent

    Download free and at maximum speed!

    How to Download? · What is a torrent? · Ratings and Limitations

    The site does not extend and does not store electronic(digital) versions of products, and only gives access to a reference catalogue created by users on torrent-files which contain only lists of the hash-sums, the earnest entreaty, with complaints(abuse) to access directly to the user. Files for an exchange on tracker are given by users of a site, and the administration does not bear the responsibility for their maintenance. The request to not fill in the files protected by copyrights, and also files of the illegal maintenance!

    [Profile] [PM]
    Display posts from previous:    
    Reply to topic

    The time now is: Today 14:24

    All times are GMT + 3 Hours

    You cannot post new topics in this forum
    You cannot reply to topics in this forum
    You cannot edit your posts in this forum
    You cannot delete your posts in this forum
    You cannot vote in polls in this forum
    You cannot attach files in this forum
    You cannot download files in this forum