Register  ·  Log in
Forgot password?

  • Огни города / City Lights (Хансал Мехта / Hansal Mehta) [2014, Индия, Триллер, драма, DVDRip] Sub Rus

    Reply to topic
    Author Message


    Post 21-Aug-2014 23:34



    Огни города / City Lights
    Страна: Индия
    Жанр: Триллер, драма
    Год выпуска: 2014
    Продолжительность: 02:07:03
    Перевод: Субтитры
    Cубтитры: русские
    Оригинальная аудиодорожка: хинди
    Режиссер: Хансал Мехта / Hansal Mehta
    В ролях: Раджкумар Рао, Патралекха, Манав Коул, Ваибхави Юпадхай, Прамод Патхак
    Описание: Дипак Сингх имеет небольшой магазин одежды в Раджастхане. Но вскорее его магазин закрывается из-за долгов и в поисках хорошей жизни он решает переехать с женой и маленьким ребёнком в Мумбаи. Однако, после прибытия он сталкивается с трудностями при выживании в большом городе...
    Доп. информация: Перевод субтитров: Baazigar(Спасибо!)
    Качество видео: DVDRip
    Формат видео: AVI
    Видео: XviD build 47, 640x272 (2.35:1), 23.976 fps, 1499 kbps avg
    Аудио: Hindi MPEG Layer 3, 44.100 kHz, 2/0 (L,R) ch, 128.00 kbps avg
    Формат субтитров: hardsub (неотключаемые)


    Complete name : F:\Ogni.goroda.2014.DVDRip.XviD.avi
    Format : AVI
    Format/Info : Audio Video Interleave
    File size : 1.45 GiB
    Duration : 2h 7mn
    Overall bit rate : 1 637 Kbps
    Writing application : VirtualDubMod (build 2540/release)
    Writing library : VirtualDubMod build 2540/release
    ID : 0
    Format : MPEG-4 Visual
    Format profile : AdvancedSimple@L5
    Format settings, BVOP : Yes
    Format settings, QPel : No
    Format settings, GMC : No warppoints
    Format settings, Matrix : Default (H.263)
    Codec ID : XVID
    Codec ID/Hint : XviD
    Duration : 2h 7mn
    Bit rate : 1 500 Kbps
    Width : 640 pixels
    Height : 272 pixels
    Display aspect ratio : 2.35
    Frame rate : 23.976 fps
    Resolution : 24 bits
    Colorimetry : 4:2:0
    Scan type : Progressive
    Bits/(Pixel*Frame) : 0.359
    Stream size : 1.33 GiB (92%)
    Writing library : XviD 1.2.0.dev47 (UTC 2006-11-01)
    ID : 1
    Format : MPEG Audio
    Format version : Version 1
    Format profile : Layer 3
    Codec ID : 55
    Codec ID/Hint : MP3
    Duration : 2h 7mn
    Bit rate mode : Constant
    Bit rate : 128 Kbps
    Channel(s) : 2 channels
    Sampling rate : 44.1 KHz
    Resolution : 16 bits
    Stream size : 116 MiB (8%)
    Alignment : Split accross interleaves
    Interleave, duration : 42 ms (1.00 video frame)
    Interleave, preload duration : 500 ms
    Writing library : LAME3.97
    Encoding settings : -m s -V 4 -q 2 -lowpass 17 -b 128

    Скриншот c названием фильма


    Download .torrent

    Download free and at maximum speed!

    How to Download? · What is a torrent? · Ratings and Limitations

    The site does not extend and does not store electronic(digital) versions of products, and only gives access to a reference catalogue created by users on torrent-files which contain only lists of the hash-sums, the earnest entreaty, with complaints(abuse) to access directly to the user. Files for an exchange on tracker are given by users of a site, and the administration does not bear the responsibility for their maintenance. The request to not fill in the files protected by copyrights, and also files of the illegal maintenance!

    [Profile] [PM]
    Display posts from previous:    
    Reply to topic

    The time now is: Today 12:25

    All times are GMT + 3 Hours

    You cannot post new topics in this forum
    You cannot reply to topics in this forum
    You cannot edit your posts in this forum
    You cannot delete your posts in this forum
    You cannot vote in polls in this forum
    You cannot attach files in this forum
    You cannot download files in this forum