BitTorrentTracker PerecTracker.org
BitTorrentTracker PerecTracker.org
    
Регистрация  ·  Вход
 
 · 
Забыли пароль?

  • Ганнибал / Hannibal / Сезон: 2 / Серии: 1-13 из 13 (Гильермо Наварро, Майкл Раймер, Дэвид Слэйд) [2014, детектив, криминал, драма, WEB-DLRip] MVO (Sony Sci Fi) + Original + Rus, Eng Sub

    Ответить на тему
     
    Автор Сообщение

    Columb

    Создавать темы 21-Авг-2014 22:02

           

    [Цитировать]

    -Ганнибал | Hannibal-Страна: США
    Год выпуска: 2014
    Жанр: детектив, криминал, драма
    Продолжительность: ~ 00:42:00-Режиссёр: Гильермо Наварро, Майкл Раймер, Дэвид Слэйд
    Перевод: Профессиональный (многоголосый закадровый) Sony Sci Fi-В ролях: Мадс Миккельсен, Хью Дэнси, Каролин Давернас, Лара Жан Чоростецки, Аарон Абрамс, Лоренс Фишбёрн, Эттьенн Парк, Скотт Томпсон, Торианна Ли, Демор Барнс-Описание: До событий фильмов «Молчание ягнят» и «Красный Дракон» Доктор Ганнибал Лектер был блестящим психиатром, работающим на ФБР. Уилл Грэхэм — одаренный профайлер, который вместе с ФБР разыскивает серийного убийцу. Уникальный способ мышления Грэхэма дает ему удивительную способность глубоко проникаться чувствами другого человека, даже психопата. Он может понять, что ими движет. Но когда ум преследуемого убийцы оказывается слишком сложным, он прибегает к помощи доктора Лектера, одного из ведущих психиатрических умов в стране. В то время как Уилл охотится за жестокими преступниками, он и понятия не имеет, что каждый день имеет дело с самым одаренным из них.--Качество: WEB-DLRip
    Формат: AVI
    Видео кодек: XviD
    Аудио кодек: MP3-Видео: ~ 1580 kbps, 720x400, 23,976 fps, 0.229 bit/pixel
    Аудио 1: mp3, 48,0 КГц, 2 ch, 128 kbps - Rus
    Аудио 2: mp3, 48,0 КГц, 2 ch, 128 kbps - Eng
    Субтитры: русские, английские
    -Альтернативные раздачи / Сэмпл-

    Релиз

    рип: qqss44
    озвучание: Sony Sci Fi
    За звук спасибо skofield и BS666
    Субтитры:
    какие-то серии - Notabenoid, тайминг: BS666
    какие-то серии - Doctor Joker и MartinaG

    MediaInfo

    Общее
    Формат : AVI
    Формат/Информация : Audio Video Interleave
    Размер файла : 572 Мбайт
    Продолжительность : 43 м.
    Общий поток : 1850 Кбит/сек
    Программа кодирования : VirtualDubMod 1.5.10.3 | www.virtualdub-fr.org || (build 2550/release)
    Библиотека кодирования : VirtualDubMod build 2550/release
    Видео
    Идентификатор : 0
    Формат : MPEG-4 Visual
    Профиль формата : Advanced Simple@L5
    Параметр BVOP формата : Да
    Параметр QPel формата : Нет
    Параметр GMC формата : Без точки перехода
    Параметр матрицы формата : Default (H.263)
    Идентификатор кодека : XVID
    Идентификатор кодека/Подсказка : XviD
    Продолжительность : 43 м.
    Битрейт : 1580 Кбит/сек
    Ширина : 720 пикселей
    Высота : 400 пикселей
    Соотношение сторон : 16:9
    Частота кадров : 23,976 кадра/сек
    Цветовое пространство : YUV
    Субдискретизация насыщенности : 4:2:0
    Битовая глубина : 8 бит
    Тип развёртки : Прогрессивная
    Метод сжатия : С потерями
    Бит/(Пиксели*Кадры) : 0.229
    Размер потока : 488 Мбайт (85%)
    Библиотека кодирования : XviD 73
    Аудио #1
    Идентификатор : 1
    Формат : MPEG Audio
    Версия формата : Version 1
    Профиль формата : Layer 3
    Идентификатор кодека : 55
    Идентификатор кодека/Подсказка : MP3
    Продолжительность : 43 м.
    Вид битрейта : Постоянный
    Битрейт : 128 Кбит/сек
    Каналы : 2 канала
    Частота : 48,0 КГц
    Метод сжатия : С потерями
    Размер потока : 39,6 Мбайт (7%)
    Выравнивание : Соединение по промежуткам
    Продолжительность промежутка : 42 мс. (1,00 видеокадр)
    Время предзагрузки промежутка : 504 мс.
    Библиотека кодирования : LAME3.99r
    Настройки программы : -m s -V 4 -q 2 -lowpass 17 -b 128
    Аудио #2
    Идентификатор : 2
    Формат : MPEG Audio
    Версия формата : Version 1
    Профиль формата : Layer 3
    Режим : Joint stereo
    Идентификатор кодека : 55
    Идентификатор кодека/Подсказка : MP3
    Продолжительность : 43 м.
    Вид битрейта : Постоянный
    Битрейт : 128 Кбит/сек
    Каналы : 2 канала
    Частота : 48,0 КГц
    Метод сжатия : С потерями
    Размер потока : 39,6 Мбайт (7%)
    Выравнивание : Соединение по промежуткам
    Продолжительность промежутка : 42 мс. (1,00 видеокадр)
    Время предзагрузки промежутка : 504 мс.
    Библиотека кодирования : LAME3.99r
    Настройки программы : -m j -V 4 -q 2 -lowpass 17 -b 128

    Скриншоты

    -
    Скачать .torrent

    Скачать торрент-файл бесплатно и на максимальной скорости!

    Как скачивать? · Что такое торрент? · Рейтинг и ограничения

    !ВНИМАНИЕ!
    Сайт не распространяет и не хранит электронные версии произведений, а занимается лишь лишь предоставлением доступа к создаваемому пользователями каталогу ссылок на торрент-файлы, которые содержат только списки хеш-сумм, убедительная просьба с жалобами обращаться напрямую к пользователю. Файлы для обмена на трекере предоставлены пользователями сайта, и администрация не несёт ответственности за их содержание. Просьба не заливать файлы, защищенные авторскими правами, а также файлы нелегального содержания!

    [Профиль] [ЛС]
    Показать сообщения:    
    Ответить на тему

    Текущее время: Сегодня, в 16:02

    Часовой пояс: GMT + 2



    Вы не можете начинать темы
    Вы не можете отвечать на сообщения
    Вы не можете редактировать свои сообщения
    Вы не можете удалять свои сообщения
    Вы не можете голосовать в опросах
    Вы не можете прикреплять файлы к сообщениям
    Вы не можете скачивать файлы