Register  ·  Log in
Forgot password?

  • Одна встреча / Une rencontre (Лиза Азуэлос / Lisa Azuelos.) [2014, Франция, драма, мелодрама, DVDRip] Dub

    Reply to topic
    Author Message


    Post 21-Aug-2014 22:47



    Одна встреча / Une rencontre-Страна: Франция
    Жанр: драма, мелодрама
    Год выпуска: 2014
    Продолжительность: 01:18:40-Перевод: Профессиональный (дублированный)
    Cубтитры: нет
    Режиссер: Лиза Азуэлос / Lisa Azuelos.-В ролях: Софи Марсо, Франсуа Клюзе, Лиза Азуэлос, Александр Астье, Артур Бензакен, Джонатан Коэн, Нильс Шнайдер, Стефани Мурат, Оливия Коте, Сайрус Шахиди.-Описание: Случайная встреча семьянина с красивой женщиной порождает взаимное притяжение между ними… До встречи друг с другом Эльза и Пьер жили счастливыми, размеренными жизнями со своими семьями. Но знакомство переворачивает их судьбы с ног на голову. С первой же минуты их захватывает чувство настолько сильное, что они не могут ему противостоять.-КиноПоиск | IMDB | Семпл-Качество видео: DVDRip
    Формат видео: AVI
    Видео: 688x288 (2.39:1), 25 fps, XviD build 73 ~1186 kbps avg, 0.24 bit/pixel
    Аудио: 48 kHz, MPEG Layer 3, 2 ch, ~128.00 kbps avg


    Complete name : E:\Одна встреча.(Logan1995).avi
    Format : AVI
    Format/Info : Audio Video Interleave
    File size : 745 Мбайт
    Duration : 1 ч. 18 м.
    Overall bit rate : 1324 Кбит/сек
    Writing application : VirtualDubMod | || (build 2550/release)
    Writing library : VirtualDubMod build 2550/release
    ID : 0
    Format : MPEG-4 Visual
    Format profile : Advanced Simple@L5
    Format settings, BVOP : 1
    Format settings, QPel : Нет
    Format settings, GMC : Без точки перехода
    Format settings, Matrix : Выборочная
    Codec ID : XVID
    Codec ID/Hint : XviD
    Duration : 1 ч. 18 м.
    Bit rate : 1187 Кбит/сек
    Width : 688 пикс.
    Height : 288 пикс.
    Display aspect ratio : 2,35:1
    Frame rate : 25,000 кадр/сек
    Color space : YUV
    Chroma subsampling : 4:2:0
    Bit depth : 8 бит
    Scan type : Прогрессивная
    Compression mode : С потерями
    Bits/(Pixel*Frame) : 0.240
    Stream size : 668 Мбайт (90%)
    Writing library : XviD 73
    ID : 1
    Format : MPEG Audio
    Format version : Version 1
    Format profile : Layer 3
    Codec ID : 55
    Codec ID/Hint : MP3
    Duration : 1 ч. 18 м.
    Bit rate mode : Постоянный
    Bit rate : 128 Кбит/сек
    Channel(s) : 2 канала(ов)
    Sampling rate : 48,0 КГц
    Compression mode : С потерями
    Stream size : 72,0 Мбайт (10%)
    Alignment : Соединение по промежуткам
    Interleave, duration : 40 мс. (1,00 видеокадр)
    Interleave, preload duration : 504 ms
    Writing library : LAME3.99r
    Encoding settings : -m s -V 4 -q 2 -lowpass 17 -b 128


    Download .torrent

    Download free and at maximum speed!

    How to Download? · What is a torrent? · Ratings and Limitations

    The site does not extend and does not store electronic(digital) versions of products, and only gives access to a reference catalogue created by users on torrent-files which contain only lists of the hash-sums, the earnest entreaty, with complaints(abuse) to access directly to the user. Files for an exchange on tracker are given by users of a site, and the administration does not bear the responsibility for their maintenance. The request to not fill in the files protected by copyrights, and also files of the illegal maintenance!

    [Profile] [PM]
    Display posts from previous:    
    Reply to topic

    The time now is: Today 02:38

    All times are GMT + 3 Hours

    You cannot post new topics in this forum
    You cannot reply to topics in this forum
    You cannot edit your posts in this forum
    You cannot delete your posts in this forum
    You cannot vote in polls in this forum
    You cannot attach files in this forum
    You cannot download files in this forum