BitTorrentTracker PerecTracker.org
BitTorrentTracker PerecTracker.org
    
Регистрация  ·  Вход
 
 · 
Забыли пароль?

  • Черный Джек (фильм второй) / Black Jack: Futari no Kuroi Isha / Black Jack: The Two Doctors Of Darkness [Movie] [Без хардсаба] [JAP, SUB] [2005 г., приключения, сёнен, DVDRip]

    Ответить на тему
     
    Автор Сообщение

    Columb

    Создавать темы 17-Авг-2014 15:04

           

    [Цитировать]

    Черный Джек (фильм второй) / Black Jack: Futari no Kuroi Isha /
    Black Jack: The Two Doctors Of Darkness
    -Страна: Япония
    Год выпуска: 2005 г.
    Жанр: приключения, сёнен
    Тип: Movie
    Продолжительность: полнометражный фильм, 100 мин
    Режиссер: Тэдзука Макото
    Студия: Tezuka Productions-Описание: Мега-корпорация Daedalus Group находиться под атакой маленькой группы активистов, известных как Призрак Икара. После Черный Джек заботится о некоторых пострадавших и встречает доктора Кироко, также известным как воплощением смерти. Кироко со своих пациентов требует огромную сумму денег, но заместо лечения предлагает безболезненную смерть. Когда группа активистов просит о сотрудничестве, Джек, спасая своим пациентам жизнь, попадает в круговорот жизни и смерти и пытается предотвратить биологическую войну, которая может погубить человечество.-Качество: DVDRip
    Тип релиза: Без хардсаба
    Формат видео: MKV
    Совместимость с бытовыми плеерами: Нет
    Видео: AVC, 848x480, 921 Кбит/сек, 23,976 кадра/сек, 10 бит
    Аудио: A_AC3, 448 Кбит/сек, 48,0 КГц, 6 каналов Язык Японский
    Субтитры: ass, внешние Язык субтитров русский ; Перевод: marina541

    Подробные тех. данные

    ОбщееУникальный идентификатор : 187157656427538184270991149887640780049 (0x8CCD40E44BA821EAAD8B1C562C773D11)Полное имя : L:\Всёмс\Аниме\My\Black Jack - Futari no Kuroi Isha\Black Jack - Futari no Kuroi Isha (DVD 848x480 x264 Hi10p AC3 6ch).mkvФормат : MatroskaВерсия формата : Version 2Размер файла : 924 МбайтПродолжительность : 1 ч. 32 м.Общий поток : 1396 Кбит/секДата кодирования : UTC 2012-06-16 22:55:51Программа кодирования : mkvmerge v5.6.0 ('Kenya Kane') built on May 27 2012 16:44:04Библиотека кодирования : libebml v1.2.3 + libmatroska v1.3.0
    ВидеоИдентификатор : 1Формат : AVCФормат/Информация : Advanced Video CodecПрофиль формата : High 10@L3.0Параметр CABAC формата : ДаПараметр ReFrames формата : 4 кадраРежим смешивания : Header strippingИдентификатор кодека : V_MPEG4/ISO/AVCПродолжительность : 1 ч. 32 м.Битрейт : 921 Кбит/секШирина : 848 пикселейВысота : 480 пикселейСоотношение сторон : 16:9Режим частоты кадров : ПостоянныйЧастота кадров : 23,976 кадра/секЦветовое пространство : YUVСубдискретизация насыщенности : 4:2:0Битовая глубина : 10 битТип развёртки : ПрогрессивнаяБит/(Пиксели*Кадры) : 0.094Размер потока : 609 Мбайт (66%)Библиотека кодирования : x264 core 125 r2200 999b753Настройки программы : cabac=1 / ref=4 / deblock=1:0:0 / analyse=0x3:0x133 / me=umh / subme=7 / psy=1 / psy_rd=1.00:0.00 / mixed_ref=1 / me_range=32 / chroma_me=1 / trellis=2 / 8x8dct=1 / cqm=0 / deadzone=21,11 / fast_pskip=0 / chroma_qp_offset=-2 / threads=3 / lookahead_threads=1 / sliced_threads=0 / nr=0 / decimate=1 / interlaced=0 / bluray_compat=0 / constrained_intra=0 / bframes=6 / b_pyramid=2 / b_adapt=2 / b_bias=0 / direct=3 / weightb=1 / open_gop=0 / weightp=2 / keyint=240 / keyint_min=23 / scenecut=40 / intra_refresh=0 / rc_lookahead=40 / rc=crf / mbtree=1 / crf=16.0 / qcomp=0.60 / qpmin=10 / qpmax=51 / qpstep=4 / ip_ratio=1.40 / aq=1:1.00Язык : JapaneseDefault : ДаForced : Нет
    АудиоИдентификатор : 2Формат : AC-3Формат/Информация : Audio Coding 3Расширение режима : CM (complete main)Параметр Endianness формата : BigРежим смешивания : Header strippingИдентификатор кодека : A_AC3Продолжительность : 1 ч. 32 м.Вид битрейта : ПостоянныйБитрейт : 448 Кбит/секКаналы : 6 каналовРасположение каналов : Front: L C R, Side: L R, LFEЧастота : 48,0 КГцБитовая глубина : 16 битМетод сжатия : С потерямиРазмер потока : 296 Мбайт (32%)Язык : JapaneseDefault : ДаForced : Нет

    Скриншоты

    Скачать .torrent

    Скачать торрент-файл бесплатно и на максимальной скорости!

    Как скачивать? · Что такое торрент? · Рейтинг и ограничения

    !ВНИМАНИЕ!
    Сайт не распространяет и не хранит электронные версии произведений, а занимается лишь лишь предоставлением доступа к создаваемому пользователями каталогу ссылок на торрент-файлы, которые содержат только списки хеш-сумм, убедительная просьба с жалобами обращаться напрямую к пользователю. Файлы для обмена на трекере предоставлены пользователями сайта, и администрация не несёт ответственности за их содержание. Просьба не заливать файлы, защищенные авторскими правами, а также файлы нелегального содержания!

    [Профиль] [ЛС]
    Показать сообщения:    
    Ответить на тему

    Текущее время: Сегодня, в 22:31

    Часовой пояс: GMT + 2



    Вы не можете начинать темы
    Вы не можете отвечать на сообщения
    Вы не можете редактировать свои сообщения
    Вы не можете удалять свои сообщения
    Вы не можете голосовать в опросах
    Вы не можете прикреплять файлы к сообщениям
    Вы не можете скачивать файлы