BitTorrentTracker PerecTracker.org
BitTorrentTracker PerecTracker.org
    
Регистрация  ·  Вход
 
 · 
Забыли пароль?

  • Школьной романтической комедии мешают мои мысленные выборы / NouCome / Ore no Nounai Sentakushi ga, Gakuen Lovecome o Zenryoku de Jama Shiteiru (Инагаки Такаюки) [TV] [10 из 10] [без хардсаба][RUS(ext), JAP+SUB] [2013 г., комедия, этти, BDRip]

    Ответить на тему
     
    Автор Сообщение

    Columb

    Создавать темы 17-Авг-2014 15:03

           

    [Цитировать]

    -Год выпуска: 2013
    Страна: Япония
    Жанр: комедия, этти, пародия, школа
    Продолжительность: ТВ-сериал, 10 эп. по 24 мин.
    Выпуск: c 10.10.2013 по 12.12.2013-Перевод:

  • русские субтитры от Sa4ko aka Kiyoso & Zenobian-Режиссер: Инагаки Такаюки
    Студия: Studio Barcelona-Описание:
    Когда ты слышишь голоса – это диагноз. Когда на мобильник звонит Бог – это состояние души. 17-летний Канадэ Амакуса знает, что болен на всю голову, ибо неведомые силы постоянно ставят его перед выбором один хуже другого: например, прилюдно захрюкать свиньей или пойти убиться об стену. Отказ или промедление влекут нестерпимую боль, так что парень давно сдался. Даже регулярно выбираемое меньшее зло принесло Амакусе репутацию отмороженного психа, и лишь одноклассницы Ока и Фурано считают Канадэ своим другом – ибо настоящий мужик в их понимании однозначно должен быть веселым оригиналом и немного извращенцем!
    Канадэ давно вылетел бы из школы, если бы его не прикрывала таинственная лоли-сэнсэй Утагэ-тян. Но даже ее возможностей надолго не хватило, и тогда в дело вмешался Бог. Для начала Ками-сама отправил в помощь страдальцу симпатичную блондинку-сладкоежку, а потом начал лично ставить задачи, решив которые до конца, парень избавится от проклятия. Но вот толку от посланницы, получившей имя Шоколад, маловато, а выполнять задания невозможно из-за постоянных «приходов». В общем, Амакусу явно ждет аналог Двенадцати подвигов Геракла, только тот с гидрами всякими боролся, а тут придется с самим собой!
    © Hollow, World Art
    Дословный перевод названия сериала «Что ни выбирай, а школьной романтической комедии уже не видать».
    Напарницу главного героя не зря зовут Шоколад, ведь его фамилия Амакуса тоже значит «сладкая трава».-Информационные ссылки: AniDB || World Art || MAL-Качество: BDRip
    Энкод: Kirino @ RG Lucky Clover

    Тип видео: без хардсаба
    Формат: mkv
    Видео: x264 (8bit), 852x480, ~1000 Kbps, 23.976 fps
    Аудио JAP: Vorbis, 48000Hz, ~256 Kbps, 2ch
    Аудио RUS: AC3, 48000Hz, ~192 Kbps, 2ch (внешними файлами)-Список озвучек в раздаче
  • двухголосая (муж./жен.) от Nyasheek & Oni (SHIZA)-

    Список эпизодов

    01. That Choice Put My Life in Motion
    02. Secret Technique! Make Them Laugh with a Butakku Joke! / Objection! Butakku Trial
    03. Girls und Panty Shots / You Want to See Underwear Even If It`s a Guy`s?
    04. Go into Harem Time and... / Something That Feels Really Good Will Happen.
    05. Little Sister Shows Up / Stomach Gets Upset
    06. Tiger Tiger Tiger! / Pig Pig Pig!
    07. Seira Sortie! / Seira, Don`t Make Me Take My Clothes Off
    08. My Freeloader Can`t Be This Smart? / My Thing Can`t Be This Amazing?!
    09. Gasp! A Swimming Contest Filled with Girls! / Flex! A Muscle Contest Filled with Bros! / Earthware! An Excavation Contest Filled with Jamon Pottery!
    10. Life Is a Series of Choices / Life Is a Series of Chores

    Скриншоты

    Подробные тех. данные

    Format                                   : Matroska
    Format version                           : Version 4 / Version 2
    File size                                : 255 MiB
    Duration                                 : 24mn 37s
    Overall bit rate mode                    : Variable
    Overall bit rate                         : 1 446 Kbps
    Encoded date                             : UTC 2014-08-17 10:50:58
    Writing application                      : mkvmerge v6.8.0 ('Theme for Great Cities') 32bit built on Mar  2 2014 21:27:07
    Writing library                          : libebml v1.3.0 + libmatroska v1.4.1
    Video
    ID                                       : 1
    Format                                   : AVC
    Format/Info                              : Advanced Video Codec
    Format profile                           : High@L4.1
    Format settings, CABAC                   : Yes
    Format settings, ReFrames                : 16 frames
    Codec ID                                 : V_MPEG4/ISO/AVC
    Duration                                 : 24mn 37s
    Bit rate                                 : 1 161 Kbps
    Width                                    : 852 pixels
    Height                                   : 480 pixels
    Display aspect ratio                     : 16:9
    Frame rate mode                          : Constant
    Frame rate                               : 23.976 fps
    Color space                              : YUV
    Chroma subsampling                       : 4:2:0
    Bit depth                                : 8 bits
    Scan type                                : Progressive
    Bits/(Pixel*Frame)                       : 0.118
    Stream size                              : 204 MiB (80%)
    Title                                    : Kirino @ RG Lucky Clover
    Writing library                          : x264 core 142 r2431 ac76440
    Encoding settings                        : cabac=1 / ref=16 / deblock=1:-2:-2 / analyse=0x3:0x113 / me=umh / subme=9 / psy=1 / psy_rd=0.40:0.00 / mixed_ref=1 / me_range=32 / chroma_me=1 / trellis=2 / 8x8dct=1 / cqm=0 / deadzone=21,11 / fast_pskip=1 / chroma_qp_offset=-2 / threads=6 / lookahead_threads=1 / sliced_threads=0 / nr=0 / decimate=1 / interlaced=0 / bluray_compat=0 / constrained_intra=0 / bframes=16 / b_pyramid=2 / b_adapt=2 / b_bias=0 / direct=1 / weightb=1 / open_gop=0 / weightp=2 / keyint=240 / keyint_min=23 / scenecut=40 / intra_refresh=0 / rc_lookahead=40 / rc=crf / mbtree=0 / crf=16.0 / qcomp=0.70 / qpmin=10 / qpmax=51 / qpstep=4 / vbv_maxrate=62500 / vbv_bufsize=50000 / crf_max=0.0 / nal_hrd=none / filler=0 / ip_ratio=1.40 / pb_ratio=1.30 / aq=1:1.00
    Language                                 : Japanese
    Default                                  : Yes
    Forced                                   : No
    Audio
    ID                                       : 2
    Format                                   : Vorbis
    Format settings, Floor                   : 1
    Codec ID                                 : A_VORBIS
    Duration                                 : 24mn 37s
    Bit rate mode                            : Variable
    Bit rate                                 : 256 Kbps
    Channel(s)                               : 2 channels
    Sampling rate                            : 48.0 KHz
    Compression mode                         : Lossy
    Stream size                              : 45.1 MiB (18%)
    Writing library                          : libVorbis (Schaufenugget) (20101101 (Schaufenugget))
    Language                                 : Japanese
    Default                                  : Yes
    Forced                                   : No
    Скачать .torrent

    Скачать торрент-файл бесплатно и на максимальной скорости!

    Как скачивать? · Что такое торрент? · Рейтинг и ограничения

    !ВНИМАНИЕ!
    Сайт не распространяет и не хранит электронные версии произведений, а занимается лишь лишь предоставлением доступа к создаваемому пользователями каталогу ссылок на торрент-файлы, которые содержат только списки хеш-сумм, убедительная просьба с жалобами обращаться напрямую к пользователю. Файлы для обмена на трекере предоставлены пользователями сайта, и администрация не несёт ответственности за их содержание. Просьба не заливать файлы, защищенные авторскими правами, а также файлы нелегального содержания!

  • [Профиль] [ЛС]
    Показать сообщения:    
    Ответить на тему

    Текущее время: Сегодня, в 22:24

    Часовой пояс: GMT + 2



    Вы не можете начинать темы
    Вы не можете отвечать на сообщения
    Вы не можете редактировать свои сообщения
    Вы не можете удалять свои сообщения
    Вы не можете голосовать в опросах
    Вы не можете прикреплять файлы к сообщениям
    Вы не можете скачивать файлы