BitTorrentTracker PerecTracker.org
BitTorrentTracker PerecTracker.org
    
Регистрация  ·  Вход
 
 · 
Забыли пароль?

  • Вальврэйв Освободитель (ТВ-1) / Kakumeiki Valvrave / Valvrave the Liberator (Мацуо Ко) [TV] [12 из 12] [Без хардсаба] [RUS(int), JAP+SUB] [2013 г., приключения, фантастика, меха, BDRip] [HWP]

    Ответить на тему
     
    Автор Сообщение

    Columb

    Создавать темы 17-Авг-2014 15:01

           

    [Цитировать]

    -Вальврэйв Освободитель / Kakumeiki Valvrave-
    Год выпуска: 2013
    Страна: Япония
    Жанр: приключения, фантастика, меха
    Тип: TV
    Продолжительность: 12 эп. по 25 мин.
    Озвучка: двухголосая (муж/жен) от Cuba77 & Nika_Lenina
    Cубтитры: SRT, ASS (внешние) от Timecraft, переводчики: reijiimeganeko, AleX_MytH редактор/оформление: AleX_MytH-Режиссеры: Мацуо Ко
    Студия: -Описание:В далеком будущем люди живут в околоземном пространстве, вокруг Солнца раскинулась огромная сфера Дайсона, а человечество все так же рвут на части междоусобицы. Главными силами конфликта являются германская империя Доруссия, Атлантическая Федерация Арус и экономически успешный, но не богатый военными ресурсами Джиор, наследник маленькой, но гордой островной нации. Доруссия вторгается во владения Джиора в Сфере, торгаши из Аруса бросают бывших союзников, атакованные модули падают в руки врага, как спелые яблоки… кроме одного. А там в чем дело?
    Дело в том, что в модуле-77 расположена старшая школа Сакимори, а с японскими… то есть, джиорскими школьниками шутки плохи! Это в мирное время старшеклассник Харуто Токисима – мягкотелый пацифист, мечтающий со всеми жить в дружбе и согласии. Стоит же тронуть пальцем его страну, друзей и близких – и Харуто превращается в смесь берсерка и хитроумного Одиссея, который может одинаково использовать и невесть откуда взявшегося боевого робота, и собственные мозги. Если же к повстанцам по всем законам жанра присоединить перековавшегося шпиона, местного хулигана и школьного идола, то «новые нибелунги» еще сто раз пожалеют, что затеяли свой «дранг нах сферен»!
    © Hollow, World Art-Информационные ссылки: AniDB || World Art ||MAL |-Качество: BDRip (DS of Winter - RG Pantheon )
    Тип релиза: без хардсаба
    Формат: AVI (Сэмпл)
    Видео: 720x400 (1.80:1), 23.976 fps, XviD build 47 ~1500 kbps avg, 0.22 bit/pixel
    Аудио #1: 48 kHz, MPEG Layer 3, 2 ch, ~192.00 kbps avg (Rus) (в составе контейнера)
    Аудио #2: 48 kHz, MPEG Layer 3, 2 ch, ~192.00 kbps avg (Jap)-

    MI

    General
    Complete name : D:\Видео\Аниме\HWP\Kakumeiki Valvrave\Kakumeiki Valvrave 01.avi
    Format : AVI
    Format/Info : Audio Video Interleave
    File size : 332 MiB
    Duration : 24mn 28s
    Overall bit rate : 1 897 Kbps
    Writing application : VirtualDubMod 1.5.10.3 (build 2550/release)
    Writing library : VirtualDubMod build 2550/release
    Video
    ID : 0
    Format : MPEG-4 Visual
    Format profile : Advanced Simple@L5
    Format settings, BVOP : 1
    Format settings, QPel : No
    Format settings, GMC : No warppoints
    Format settings, Matrix : Default (H.263)
    Codec ID : XVID
    Codec ID/Hint : XviD
    Duration : 24mn 28s
    Bit rate : 1 499 Kbps
    Width : 720 pixels
    Height : 400 pixels
    Display aspect ratio : 16:9
    Frame rate : 23.976 fps
    Color space : YUV
    Chroma subsampling : 4:2:0
    Bit depth : 8 bits
    Scan type : Progressive
    Compression mode : Lossy
    Bits/(Pixel*Frame) : 0.217
    Stream size : 262 MiB (79%)
    Writing library : XviD 1.2.0.dev47 (UTC 2006-11-01)
    Audio #1
    ID : 1
    Format : MPEG Audio
    Format version : Version 1
    Format profile : Layer 3
    Mode : Joint stereo
    Mode extension : MS Stereo
    Codec ID : 55
    Codec ID/Hint : MP3
    Duration : 24mn 28s
    Bit rate mode : Constant
    Bit rate : 192 Kbps
    Channel count : 2 channels
    Sampling rate : 48.0 KHz
    Compression mode : Lossy
    Stream size : 33.6 MiB (10%)
    Alignment : Aligned on interleaves
    Interleave, duration : 42 ms (1.00 video frame)
    Interleave, preload duration : 504 ms
    Writing library : LAME3.98.4
    Audio #2
    ID : 2
    Format : MPEG Audio
    Format version : Version 1
    Format profile : Layer 3
    Mode : Joint stereo
    Mode extension : MS Stereo
    Codec ID : 55
    Codec ID/Hint : MP3
    Duration : 24mn 28s
    Bit rate mode : Constant
    Bit rate : 192 Kbps
    Channel count : 2 channels
    Sampling rate : 48.0 KHz
    Compression mode : Lossy
    Stream size : 33.6 MiB (10%)
    Alignment : Aligned on interleaves
    Interleave, duration : 42 ms (1.00 video frame)
    Interleave, preload duration : 504 ms
    Writing library : LAME3.98.4

    Список эпизодов

    01. Revolutionary Transfer Student
    02. Beyond 666
    03. L-elf`s Prophesy
    04. The Hostage Is Valvrave
    05. Singing Sakimori Academy
    06. Saki, Come Back!
    07. Haruto Under the Rubble
    08. Princess of Light
    09. Dogs and Thunder
    10. Campaign Promise of Love
    11. Military Tribunal #54
    12. Rise of the Heretic

    Скриншоты

    Скачать .torrent

    Скачать торрент-файл бесплатно и на максимальной скорости!

    Как скачивать? · Что такое торрент? · Рейтинг и ограничения

    !ВНИМАНИЕ!
    Сайт не распространяет и не хранит электронные версии произведений, а занимается лишь лишь предоставлением доступа к создаваемому пользователями каталогу ссылок на торрент-файлы, которые содержат только списки хеш-сумм, убедительная просьба с жалобами обращаться напрямую к пользователю. Файлы для обмена на трекере предоставлены пользователями сайта, и администрация не несёт ответственности за их содержание. Просьба не заливать файлы, защищенные авторскими правами, а также файлы нелегального содержания!

    [Профиль] [ЛС]
    Показать сообщения:    
    Ответить на тему

    Текущее время: Сегодня, в 18:00

    Часовой пояс: GMT + 2



    Вы не можете начинать темы
    Вы не можете отвечать на сообщения
    Вы не можете редактировать свои сообщения
    Вы не можете удалять свои сообщения
    Вы не можете голосовать в опросах
    Вы не можете прикреплять файлы к сообщениям
    Вы не можете скачивать файлы