BitTorrentTracker PerecTracker.org
BitTorrentTracker PerecTracker.org
    
Регистрация  ·  Вход
 
 · 
Забыли пароль?

  • Новаторы / Сезон: 1 - 2 / Серии: 1 - 27 (?) (Алексей Штыхин) [2011 - 2014, познавательный мультсериал, DVDRip] Лицензия

    Ответить на тему
     
    Автор Сообщение

    Columb

    Создавать темы 17-Авг-2014 14:54

           

    [Цитировать]

    Новаторы-Страна: Россия
    Жанр: мультфильм, фантастика, приключения
    Год выпуска: 2011
    Продолжительность: ≈00:06:30-Перевод: Не требуется
    Субтитры: нет
    Режиссер: Алексей Штыхин
    В ролях:

    Лариса Брохман (озвучка), Ольга Шорохова (озвучка), Дмитрий Филимонов (озвучка)-Описание: Познавательный мультсериал о путешествиях во времени четверки друзей, один из которых прибыл из космоса. Однажды на головы, то есть на чердак, школьников Фила и Наны, брата и сестры, свалился инопланетянин. Летающая тарелка сломалась, и галактический гость должен был совершить экстренную посадку. Ребята пытаются помочь Нео починить его аппарат и предлагают в качестве источника запчастей старый холодильник.
    Вместо того, чтобы отремонтировать корабль, Нео сооружает из холодильника машину времени. Прихватив с собой Теслика, ручного хомячка, ребята отправляются в путешествие во времени. В увлекательнейших странствиях по разным эпохам друзей ждут новые открытия, знакомства, опасности и трудности, выход из которых путешественникам помогут найти реальные, запатентованные изобретения российских умельцев и ученых.--Качество: DVDRip | 3DVD5 (Спасибо New-Team) | sample
    Контейнер: AVI
    Видео: XviD, 720x400 (16:9), ≈ 2100-2200 kbps, 25 fps, 0,300 bpp
    Аудио: AC3 / 2.0 / 48 kHz / 192 kbps / 16 bit-

    Скриншоты

    Media Info

    General
    Complete name : E:\Новаторы\02. Такие полезные кляксы.avi
    Format : AVI
    Format/Info : Audio Video Interleave
    File size : 110 MiB
    Duration : 6mn 30s
    Overall bit rate : 2 361 Kbps
    Writing application : VirtualDubMod 1.5.10.3 | www.virtualdub-fr.org || (build 2550/release)
    Writing library : VirtualDubMod build 2550/release
    Video
    ID : 0
    Format : MPEG-4 Visual
    Format profile : Advanced Simple@L5
    Format settings, BVOP : 1
    Format settings, QPel : No
    Format settings, GMC : No warppoints
    Format settings, Matrix : Custom
    Codec ID : XVID
    Codec ID/Hint : XviD
    Duration : 6mn 30s
    Bit rate : 2 159 Kbps
    Width : 720 pixels
    Height : 400 pixels
    Display aspect ratio : 16:9
    Frame rate : 25.000 fps
    Color space : YUV
    Chroma subsampling : 4:2:0
    Bit depth : 8 bits
    Scan type : Progressive
    Compression mode : Lossy
    Bits/(Pixel*Frame) : 0.300
    Stream size : 100 MiB (91%)
    Writing library : XviD 73
    Audio
    ID : 1
    Format : AC-3
    Format/Info : Audio Coding 3
    Mode extension : CM (complete main)
    Codec ID : 2000
    Duration : 6mn 30s
    Bit rate mode : Constant
    Bit rate : 192 Kbps
    Channel(s) : 2 channels
    Channel positions : Front: L R
    Sampling rate : 48.0 KHz
    Bit depth : 16 bits
    Compression mode : Lossy
    Stream size : 8.93 MiB (8%)
    Alignment : Split accross interleaves
    Interleave, duration : 40 ms (1.00 video frame)
    Interleave, preload duration : 500 ms

    Список серий

    Сезон 1::
    Выпуск 1 - Идеи вне времени:
    01. Странные гости старого чердака
    02. Такие полезные кляксы
    03. Операция "Чистые руки"
    04. Холодильник времени
    05. Маска ледникового периода
    06. Энергия морских приливов
    07. Сокровище запотевшей бутылки
    08. Дым каменного века
    09. Приключение с огоньком
    Выпуск 2 - И никакого волшебства:
    10. Как надуть противника
    11. Зубная магия
    12. Царская ёлка
    13. Чудо-топливо
    14. Кладоискатели
    15. Когда закрываются банки
    16. Палатка гавайского плаксы
    17. Волшебная сила бурной воды
    18. Подводное сафари
    19. За призраком с фонарём
    Сезон 2:
    Выпуск 3 - Культура и искусство:
    20. В гостях у Леонардо
    21. Тарелка над Версалем
    22. Парк культуры Юрского периода
    23. Конек-Горбунок с мотором
    24. Будильник для Рима
    25. Марафонский полет
    26. Чистое дело
    27. Экзоскелет

    Внимание! Раздача ведётся путём добавления новых серий

    Внимание! Раздача ведётся путём добавления новых серий; при каждом добавлении создаётся новый торрент-файл. Чтобы начать докачку новой серии, пользователям необходимо сделать следующее:
    (1) остановить скачивание;
    (2) удалить старый торрент-файл у себя из клиента (старые серии удалять не надо);
    (3) скачать новый торрент-файл и запустить его у себя в клиенте вместо старого, при этом указать клиенту путь в старую папку куда и должно происходить скачивание новых серий.
    Ваш клиент при этом должен произвести хеширование (проверку) старой папки (если он не производит проверку сам – помогите ему сделать это), и будет докачивать только те серии которых у вас ещё нет. Старые серии при этом не удаляются, а продолжают раздаваться!
    Если вы уже удалили старые серии, то предотвратить повторную закачку старых серий можно, отжав галочку в соответствующих местах при запуске нового торрент-файла. Желательно старые серии не удалять как можно дольше, чтобы релизёр не столько продолжал раздавать старые серии, а смог сконцентрироваться на новых.
    Скачать .torrent

    Скачать торрент-файл бесплатно и на максимальной скорости!

    Как скачивать? · Что такое торрент? · Рейтинг и ограничения

    !ВНИМАНИЕ!
    Сайт не распространяет и не хранит электронные версии произведений, а занимается лишь лишь предоставлением доступа к создаваемому пользователями каталогу ссылок на торрент-файлы, которые содержат только списки хеш-сумм, убедительная просьба с жалобами обращаться напрямую к пользователю. Файлы для обмена на трекере предоставлены пользователями сайта, и администрация не несёт ответственности за их содержание. Просьба не заливать файлы, защищенные авторскими правами, а также файлы нелегального содержания!

    [Профиль] [ЛС]
    Показать сообщения:    
    Ответить на тему

    Текущее время: Сегодня, в 19:52

    Часовой пояс: GMT + 2



    Вы не можете начинать темы
    Вы не можете отвечать на сообщения
    Вы не можете редактировать свои сообщения
    Вы не можете удалять свои сообщения
    Вы не можете голосовать в опросах
    Вы не можете прикреплять файлы к сообщениям
    Вы не можете скачивать файлы