BitTorrentTracker PerecTracker.org
BitTorrentTracker PerecTracker.org
    
Регистрация  ·  Вход
 
 · 
Забыли пароль?

  • Пассажир 57 / Passenger 57 (Кевин Хукс / Kevin Hooks) [1992, США, Боевик, триллер, BDRip 720p] Dub (Мост Видео, Варус Видео) + MVO + DVO + 2xAVO + Subs (Rus, Eng) + Original Eng

    Ответить на тему
     
    Автор Сообщение

    Columb

    Создавать темы 17-Авг-2014 14:48

           

    [Цитировать]

    Пассажир 57 / Passenger 57«Он - бывший коп с дурным характером, ужасной репутацией, плохой работой. Для террористов на рейсе 163... Он - очень плохая новость»
    Страна: США
    Жанр: боевик, триллер
    Год выпуска: 1992
    Продолжительность: 01:23:44
    -Перевод:
  • Профессиональный (полное дублирование) Мост Видео
  • Профессиональный (полное дублирование) Варус Видео
  • Профессиональный (многоголосый закадровый) ТВ3
  • Профессиональный (двухголосый закадровый) НТВ
  • Авторский (одноголосый закадровый) Гаврилов
  • Авторский (одноголосый закадровый) Горчаков
    Оригинальная дорожка: английский
    Субтитры: русские, английские, японские, немецкие, испанские, голландские, корейские, португальские-Режиссер: Кевин Хукс / Kevin Hooks
    В ролях:
    Уэсли Снайпс (John Cutter), Брюс Пэйн (Charles Rane), Том Сайзмор (Sly Delvecchio), Алекс Дэтчер (Marti Slayton), Брюс Гринвуд (Stuart Ramsey), Роберт Хукс (Dwight Henderson), Элизабет Херли (Sabrina Ritchie), Майкл Хорс (Forget), Марк Маколей (Vincent), Эрни Лайвли (Chief Biggs), Дачесс Томаселло (Mrs. Edwards), Уильям Эдвард Робертс (Matthew)-Описание: Чарльз Рейн - безжалостный и неистовый убийца-террорист. Джон Каттер - хладнокровный полицейский из службы безопасности авиакомпании. Схватка хорошего и плохого парней начинается в воздухе, затем продолжится на земле...-
    MPAA: R - Лицам до 17 лет обязательно присутствие взрослого
    (01:07, 54 Мб)-Качество видео: BDRip 720p
    Формат: MKV
    Видео кодек: H.264
    Аудио кодек: AC3, DTS
    Видео: 1280x536 (2.40:1), x264~3600 kbps, 23,976 fps, 0,219 bit/pixel
    Аудио 1: AC3 5.1 channels, 48.0 KHz ~384 Kbps Профессиональный (полное дублирование) Мост Видео
    Аудио 2: AC3 2.0 channels, 48.0 KHz ~192 Kbps Профессиональный (полное дублирование) Варус Видео
    Аудио 3: AC3 2.0 channels, 48.0 KHz ~192 Kbps Профессиональный (многоголосый закадровый) ТВ3
    Аудио 4: AC3 2.0 channels, 48.0 KHz ~192 Kbps Профессиональный (двухголосый закадровый) НТВ
    Аудио 5: DTS 5.1 channels, 48.0 KHz ~1510 Kbps Авторский (одноголосый закадровый) Гаврилов
    Аудио 6: AC3 2.0 channels, 48.0 KHz ~192 Kbps Авторский (одноголосый закадровый) Горчаков
    Аудио 7: AC3 5.1 channels, 48.0 KHz ~448 Kbps оригинальный (английский)
    Аудио 8: AC3 2.0 channels, 48.0 KHz ~192 Kbps португальский
    Аудио 9: AC3 2.0 channels, 48.0 KHz ~192 Kbps японский
    Аудио 10: DTS-HD MA 5.1 48 kHz 24-bit ~4473 Kbps английский (отдельно)
    -

    Скриншоты

    Media Info

    General
    Unique ID                                : 240956670215936003583383580898831857855 (0xB546910FC4F3D29A94A498A6621B78BF)
    Complete name                            : E:\Фильмы\Боевики\Passenger 57 (1992)\Passenger 57_720p.mkv
    Format                                   : Matroska
    Format version                           : Version 4 / Version 2
    File size                                : 4.20 GiB
    Duration                                 : 1h 23mn
    Overall bit rate                         : 7 182 Kbps
    Encoded date                             : UTC 2013-12-06 17:13:55
    Writing application                      : mkvmerge v6.1.0 ('Old Devil') built on Mar  4 2013 09:10:42
    Writing library                          : libebml v1.3.0 + libmatroska v1.4.0
    Video
    ID                                       : 1
    Format                                   : AVC
    Format/Info                              : Advanced Video Codec
    Format profile                           : High@L4.1
    Format settings, CABAC                   : Yes
    Format settings, ReFrames                : 9 frames
    Codec ID                                 : V_MPEG4/ISO/AVC
    Duration                                 : 1h 23mn
    Bit rate                                 : 3 600 Kbps
    Width                                    : 1 280 pixels
    Height                                   : 536 pixels
    Display aspect ratio                     : 2.40:1
    Frame rate                               : 23.976 fps
    Color space                              : YUV
    Chroma subsampling                       : 4:2:0
    Bit depth                                : 8 bits
    Scan type                                : Progressive
    Bits/(Pixel*Frame)                       : 0.219
    Stream size                              : 2.07 GiB (49%)
    Title                                    : Passenger 57 (1992)
    Writing library                          : x264 core 130 r2273 b3065e6
    Encoding settings                        : cabac=1 / ref=9 / deblock=1:-3:-3 / analyse=0x3:0x133 / me=umh / subme=10 / psy=1 / psy_rd=1.00:0.00 / mixed_ref=1 / me_range=32 / chroma_me=1 / trellis=2 / 8x8dct=1 / cqm=0 / deadzone=21,11 / fast_pskip=0 / chroma_qp_offset=-2 / threads=12 / lookahead_threads=3 / sliced_threads=0 / nr=0 / decimate=1 / interlaced=0 / bluray_compat=0 / constrained_intra=0 / bframes=12 / b_pyramid=2 / b_adapt=2 / b_bias=0 / direct=3 / weightb=1 / open_gop=0 / weightp=2 / keyint=250 / keyint_min=23 / scenecut=40 / intra_refresh=0 / rc_lookahead=60 / rc=2pass / mbtree=1 / bitrate=3600 / ratetol=1.0 / qcomp=0.60 / qpmin=0 / qpmax=69 / qpstep=4 / cplxblur=20.0 / qblur=0.5 / ip_ratio=1.40 / aq=1:1.00
    Language                                 : English
    Default                                  : Yes
    Forced                                   : No
    Audio #1
    ID                                       : 2
    Format                                   : AC-3
    Format/Info                              : Audio Coding 3
    Mode extension                           : CM (complete main)
    Codec ID                                 : A_AC3
    Duration                                 : 1h 23mn
    Bit rate mode                            : Constant
    Bit rate                                 : 384 Kbps
    Channel(s)                               : 6 channels
    Channel positions                        : Front: L C R, Side: L R, LFE
    Sampling rate                            : 48.0 KHz
    Bit depth                                : 16 bits
    Compression mode                         : Lossy
    Stream size                              : 230 MiB (5%)
    Title                                    : DUB Мост Видео AC3 5.1 384 kbps
    Language                                 : Russian
    Default                                  : Yes
    Forced                                   : No
    Audio #2
    ID                                       : 3
    Format                                   : AC-3
    Format/Info                              : Audio Coding 3
    Mode extension                           : CM (complete main)
    Codec ID                                 : A_AC3
    Duration                                 : 1h 23mn
    Bit rate mode                            : Constant
    Bit rate                                 : 192 Kbps
    Channel(s)                               : 2 channels
    Channel positions                        : Front: L R
    Sampling rate                            : 48.0 KHz
    Bit depth                                : 16 bits
    Compression mode                         : Lossy
    Stream size                              : 115 MiB (3%)
    Title                                    : DUB Варус Видео AC3 2.0 192 kbps
    Language                                 : Russian
    Default                                  : No
    Forced                                   : No
    Audio #3
    ID                                       : 4
    Format                                   : AC-3
    Format/Info                              : Audio Coding 3
    Mode extension                           : CM (complete main)
    Codec ID                                 : A_AC3
    Duration                                 : 1h 23mn
    Bit rate mode                            : Constant
    Bit rate                                 : 192 Kbps
    Channel(s)                               : 2 channels
    Channel positions                        : Front: L R
    Sampling rate                            : 48.0 KHz
    Bit depth                                : 16 bits
    Compression mode                         : Lossy
    Stream size                              : 115 MiB (3%)
    Title                                    : MVO ТВ3 AC3 2.0 48 192 kbps
    Language                                 : Russian
    Default                                  : No
    Forced                                   : No
    Audio #4
    ID                                       : 5
    Format                                   : AC-3
    Format/Info                              : Audio Coding 3
    Mode extension                           : CM (complete main)
    Codec ID                                 : A_AC3
    Duration                                 : 1h 23mn
    Bit rate mode                            : Constant
    Bit rate                                 : 192 Kbps
    Channel(s)                               : 2 channels
    Channel positions                        : Front: L R
    Sampling rate                            : 48.0 KHz
    Bit depth                                : 16 bits
    Compression mode                         : Lossy
    Stream size                              : 115 MiB (3%)
    Title                                    : DVO НТВ AC3 2.0 48 192 kbps
    Language                                 : Russian
    Default                                  : No
    Forced                                   : No
    Audio #5
    ID                                       : 6
    Format                                   : DTS
    Format/Info                              : Digital Theater Systems
    Codec ID                                 : A_DTS
    Duration                                 : 1h 23mn
    Bit rate mode                            : Constant
    Bit rate                                 : 1 510 Kbps
    Channel(s)                               : 6 channels
    Channel positions                        : Front: L C R, Side: L R, LFE
    Sampling rate                            : 48.0 KHz
    Bit depth                                : 24 bits
    Compression mode                         : Lossy
    Stream size                              : 904 MiB (21%)
    Title                                    : AVO Гаврилов DTS 5.1 1509 kbps 24-bit
    Language                                 : Russian
    Default                                  : No
    Forced                                   : No
    Audio #6
    ID                                       : 7
    Format                                   : AC-3
    Format/Info                              : Audio Coding 3
    Mode extension                           : CM (complete main)
    Codec ID                                 : A_AC3
    Duration                                 : 1h 23mn
    Bit rate mode                            : Constant
    Bit rate                                 : 192 Kbps
    Channel(s)                               : 2 channels
    Channel positions                        : Front: L R
    Sampling rate                            : 48.0 KHz
    Bit depth                                : 16 bits
    Compression mode                         : Lossy
    Stream size                              : 115 MiB (3%)
    Title                                    : AVO Горчаков AC3 2.0 192 kbps
    Language                                 : Russian
    Default                                  : No
    Forced                                   : No
    Audio #7
    ID                                       : 8
    Format                                   : AC-3
    Format/Info                              : Audio Coding 3
    Mode extension                           : CM (complete main)
    Codec ID                                 : A_AC3
    Duration                                 : 1h 23mn
    Bit rate mode                            : Constant
    Bit rate                                 : 448 Kbps
    Channel(s)                               : 6 channels
    Channel positions                        : Front: L C R, Side: L R, LFE
    Sampling rate                            : 48.0 KHz
    Bit depth                                : 16 bits
    Compression mode                         : Lossy
    Stream size                              : 268 MiB (6%)
    Title                                    : Original AC3 5.1 448 kbps
    Language                                 : English
    Default                                  : No
    Forced                                   : No
    Audio #8
    ID                                       : 9
    Format                                   : AC-3
    Format/Info                              : Audio Coding 3
    Mode extension                           : CM (complete main)
    Codec ID                                 : A_AC3
    Duration                                 : 1h 23mn
    Bit rate mode                            : Constant
    Bit rate                                 : 192 Kbps
    Channel(s)                               : 1 channel
    Channel positions                        : Front: C
    Sampling rate                            : 48.0 KHz
    Bit depth                                : 16 bits
    Compression mode                         : Lossy
    Stream size                              : 115 MiB (3%)
    Title                                    : Portuguese AC3 1.0 192 kbps
    Language                                 : Portuguese
    Default                                  : No
    Forced                                   : No
    Audio #9
    ID                                       : 10
    Format                                   : AC-3
    Format/Info                              : Audio Coding 3
    Format profile                           : Dolby Digital
    Mode extension                           : CM (complete main)
    Codec ID                                 : A_AC3
    Duration                                 : 1h 23mn
    Bit rate mode                            : Constant
    Bit rate                                 : 192 Kbps
    Channel(s)                               : 2 channels
    Channel positions                        : Front: L R
    Sampling rate                            : 48.0 KHz
    Bit depth                                : 16 bits
    Compression mode                         : Lossy
    Stream size                              : 115 MiB (3%)
    Title                                    : Japan AC3 2.0 192 kbps
    Language                                 : Japanese
    Default                                  : No
    Forced                                   : No
    Text #1
    ID                                       : 11
    Format                                   : UTF-8
    Codec ID                                 : S_TEXT/UTF8
    Codec ID/Info                            : UTF-8 Plain Text
    Language                                 : Russian
    Default                                  : Yes
    Forced                                   : No
    Text #2
    ID                                       : 12
    Format                                   : UTF-8
    Codec ID                                 : S_TEXT/UTF8
    Codec ID/Info                            : UTF-8 Plain Text
    Language                                 : English
    Default                                  : No
    Forced                                   : No
    Text #3
    ID                                       : 13
    Format                                   : PGS
    Muxing mode                              : zlib
    Codec ID                                 : S_HDMV/PGS
    Codec ID/Info                            : The same subtitle format used on BDs/HD-DVDs
    Language                                 : Japanese
    Default                                  : No
    Forced                                   : No
    Text #4
    ID                                       : 14
    Format                                   : PGS
    Muxing mode                              : zlib
    Codec ID                                 : S_HDMV/PGS
    Codec ID/Info                            : The same subtitle format used on BDs/HD-DVDs
    Language                                 : German
    Default                                  : No
    Forced                                   : No
    Text #5
    ID                                       : 15
    Format                                   : PGS
    Muxing mode                              : zlib
    Codec ID                                 : S_HDMV/PGS
    Codec ID/Info                            : The same subtitle format used on BDs/HD-DVDs
    Language                                 : Spanish
    Default                                  : No
    Forced                                   : No
    Text #6
    ID                                       : 16
    Format                                   : PGS
    Muxing mode                              : zlib
    Codec ID                                 : S_HDMV/PGS
    Codec ID/Info                            : The same subtitle format used on BDs/HD-DVDs
    Language                                 : Dutch
    Default                                  : No
    Forced                                   : No
    Text #7
    ID                                       : 17
    Format                                   : PGS
    Muxing mode                              : zlib
    Codec ID                                 : S_HDMV/PGS
    Codec ID/Info                            : The same subtitle format used on BDs/HD-DVDs
    Language                                 : Korean
    Default                                  : No
    Forced                                   : No
    Text #8
    ID                                       : 18
    Format                                   : PGS
    Muxing mode                              : zlib
    Codec ID                                 : S_HDMV/PGS
    Codec ID/Info                            : The same subtitle format used on BDs/HD-DVDs
    Language                                 : Spanish
    Default                                  : No
    Forced                                   : No
    Text #9
    ID                                       : 19
    Format                                   : PGS
    Muxing mode                              : zlib
    Codec ID                                 : S_HDMV/PGS
    Codec ID/Info                            : The same subtitle format used on BDs/HD-DVDs
    Language                                 : Portuguese
    Default                                  : No
    Forced                                   : No

    x264 log

    x264.exe: --pass 2 --bitrate 3600 --preset medium --profile high --level 4.1 --ref 9 --deblock -3:-3 --merange 32 --bframes 12 --direct auto --b-adapt 2 --trellis 2 --no-fast-pskip --partitions all --subme 10 --me umh --rc-lookahead 60 --sar 1:1 --stats "I:\Passenger.log" --output "I:\Passenger.mkv" "E:\Temp\0016.avs"
    avs [info]: 1280x536p 1:1 @ 2500000/104271 fps (cfr)
    x264 [info]: using SAR=1/1
    x264 [info]: using cpu capabilities: MMX2 SSE2Fast SSSE3 SSE4.2 AVX
    x264 [info]: profile High, level 4.1
    x264 [info]: frame I:815   Avg QP:16.51  size: 79794
    x264 [info]: frame P:29230 Avg QP:19.72  size: 32137
    x264 [info]: frame B:90424 Avg QP:21.32  size: 13895
    x264 [info]: consecutive B-frames:  2.9%  5.2% 11.3% 26.3% 16.4% 26.0%  5.5%  3.0%  1.3%  0.9%  0.5%  0.4%  0.3%
    x264 [info]: mb I  I16..4:  3.3% 86.2% 10.4%
    x264 [info]: mb P  I16..4:  1.3% 15.0%  1.6%  P16..4: 43.1% 23.1% 13.1%  0.3%  0.1%    skip: 2.5%
    x264 [info]: mb B  I16..4:  0.1%  1.4%  0.1%  B16..8: 45.2% 15.1%  3.7%  direct: 7.5%  skip:26.9%  L0:45.3% L1:44.1% BI:10.5%
    x264 [info]: 8x8 transform intra:84.7% inter:72.6%
    x264 [info]: direct mvs  spatial:99.7% temporal:0.3%
    x264 [info]: coded y,uvDC,uvAC intra: 88.1% 82.8% 52.7% inter: 37.8% 33.7% 5.4%
    x264 [info]: i16 v,h,dc,p: 33% 18%  6% 43%
    x264 [info]: i8 v,h,dc,ddl,ddr,vr,hd,vl,hu: 13%  9%  4%  9% 14% 13% 13% 12% 12%
    x264 [info]: i4 v,h,dc,ddl,ddr,vr,hd,vl,hu: 11%  9%  2%  9% 16% 15% 15% 11% 12%
    x264 [info]: i8c dc,h,v,p: 38% 23% 20% 18%
    x264 [info]: Weighted P-Frames: Y:4.3% UV:1.2%
    x264 [info]: ref P L0: 46.4%  7.3% 18.6%  8.7%  6.3%  4.7%  3.7%  2.3%  1.8%  0.3%  0.0%
    x264 [info]: ref B L0: 67.4% 15.2%  7.3%  3.9%  2.7%  2.1%  1.1%  0.3%
    x264 [info]: ref B L1: 91.6%  8.4%
    x264 [info]: kb/s:3599.64
    encoded 120469 frames, 12.27 fps, 3599.64 kb/s
    final ratefactor: 17.74
    Скачать .torrent

    Скачать торрент-файл бесплатно и на максимальной скорости!

    Как скачивать? · Что такое торрент? · Рейтинг и ограничения

    !ВНИМАНИЕ!
    Сайт не распространяет и не хранит электронные версии произведений, а занимается лишь лишь предоставлением доступа к создаваемому пользователями каталогу ссылок на торрент-файлы, которые содержат только списки хеш-сумм, убедительная просьба с жалобами обращаться напрямую к пользователю. Файлы для обмена на трекере предоставлены пользователями сайта, и администрация не несёт ответственности за их содержание. Просьба не заливать файлы, защищенные авторскими правами, а также файлы нелегального содержания!

  • [Профиль] [ЛС]
    Показать сообщения:    
    Ответить на тему

    Текущее время: Сегодня, в 12:49

    Часовой пояс: GMT + 2



    Вы не можете начинать темы
    Вы не можете отвечать на сообщения
    Вы не можете редактировать свои сообщения
    Вы не можете удалять свои сообщения
    Вы не можете голосовать в опросах
    Вы не можете прикреплять файлы к сообщениям
    Вы не можете скачивать файлы