BitTorrentTracker PerecTracker.org
BitTorrentTracker PerecTracker.org
    
Регистрация  ·  Вход
 
 · 
Забыли пароль?

  • Мой друг – гей / Date and Switch (Кристофер Нельсон / Christopher Nelson) [2013, США, комедия, BDRip-AVC] VO + Sub Eng + Original Eng

    Ответить на тему
     
    Автор Сообщение

    Columb

    Создавать темы 17-Авг-2014 14:42

           

    [Цитировать]

    Мой друг – гей / Date and Switch
    Страна: США
    Жанр: комедия
    Год выпуска: 2013
    Продолжительность: 01:31:17
    Перевод: Одноголосый закадровый Марат Шайхутдинов
    Cубтитры: английские
    Оригинальная аудиодорожка: английский
    Режиссер: Кристофер Нельсон/Christopher Nelson
    В ролях: Николас Браун,Хантер Коуп,Дакота Джонсон,Зак Креггер,Куинн Лорд,Ник Офферман,Гэри Коул,Меган Маллалли,Дариен Провост,Jennifer Clement
    Описание: Два друга заключают соглашение, что должны потерять девственность до выпускного вечера, и подвергают свои дружеские отношения проверке, когда один из парней признается, что он — гей.


    Сэмпл: http://multi-up.com/992925
    Качество видео: BDRip-AVC
    Date.and.Switch.2014.1080p.Remux.AVC.FLAC.5.1-SpaceHD
    Формат видео: MKV
    Видео: h264;1152x490;Aspect Ratio: 47:20(2.35:1);1862 kbps;23.976fps
    Аудио: AC3;Sample Rate:48000Hz;Channel:2(stereo);192kbps
    Аудио 2: AC3;Sample Rate:48000Hz;Channel:2(stereo);192kbps
    Формат субтитров: softsub (SRT)

    MediaInfo

    General
    Unique ID : 195544707196895223910822501319504791354 (0x931C8A6BB0363B0690EB3C57D237873A)
    Complete name : H:\Date.and.Switch.2014\Moy.drug.gey.mkv
    Format : Matroska
    Format version : Version 4 / Version 2
    File size : 1.46 GiB
    Duration : 1h 31mn
    Overall bit rate : 2 292 Kbps
    Encoded date : UTC 2014-08-16 19:30:09
    Writing application : mkvmerge v6.1.0 ('Old Devil') built on Mar 4 2013 09:10:42
    Writing library : libebml v1.3.0 + libmatroska v1.4.0
    Video
    ID : 1
    Format : AVC
    Format/Info : Advanced Video Codec
    Format profile : High@L4.1
    Format settings, CABAC : Yes
    Format settings, ReFrames : 7 frames
    Codec ID : V_MPEG4/ISO/AVC
    Duration : 1h 31mn
    Bit rate : 1 862 Kbps
    Width : 1 152 pixels
    Height : 490 pixels
    Display aspect ratio : 2.35:1
    Frame rate mode : Constant
    Frame rate : 23.976 fps
    Color space : YUV
    Chroma subsampling : 4:2:0
    Bit depth : 8 bits
    Scan type : Progressive
    Bits/(Pixel*Frame) : 0.138
    Stream size : 1.19 GiB (81%)
    Writing library : x264 core 142 Рип от KinoCollection
    Encoding settings : cabac=1 / ref=7 / deblock=1:-3:-3 / analyse=0x3:0x113 / me=umh / subme=11 / psy=1 / fade_compensate=0.00 / psy_rd=1.00:0.10 / mixed_ref=1 / me_range=32 / chroma_me=1 / trellis=2 / 8x8dct=1 / cqm=0 / deadzone=21,11 / fast_pskip=0 / chroma_qp_offset=-3 / threads=6 / lookahead_threads=1 / sliced_threads=0 / nr=0 / decimate=1 / interlaced=0 / bluray_compat=0 / constrained_intra=0 / fgo=0 / bframes=16 / b_pyramid=2 / b_adapt=2 / b_bias=0 / direct=1 / weightb=1 / open_gop=1 / weightp=2 / keyint=240 / keyint_min=23 / scenecut=40 / intra_refresh=0 / rc_lookahead=60 / rc=crf / mbtree=1 / crf=17.4680 / qcomp=0.60 / qpmin=0 / qpmax=69 / qpstep=4 / ip_ratio=1.40 / aq=1:1.00
    Language : English
    Default : Yes
    Forced : No
    Audio #1
    ID : 2
    Format : AC-3
    Format/Info : Audio Coding 3
    Mode extension : CM (complete main)
    Format settings, Endianness : Big
    Codec ID : A_AC3
    Duration : 1h 31mn
    Bit rate mode : Constant
    Bit rate : 192 Kbps
    Channel(s) : 2 channels
    Channel positions : Front: L R
    Sampling rate : 44.1 KHz
    Bit depth : 16 bits
    Compression mode : Lossy
    Stream size : 125 MiB (8%)
    Language : Russian
    Default : Yes
    Forced : No
    Audio #2
    ID : 3
    Format : AC-3
    Format/Info : Audio Coding 3
    Mode extension : CM (complete main)
    Format settings, Endianness : Big
    Codec ID : A_AC3
    Duration : 1h 31mn
    Bit rate mode : Constant
    Bit rate : 192 Kbps
    Channel(s) : 2 channels
    Channel positions : Front: L R
    Sampling rate : 48.0 KHz
    Bit depth : 16 bits
    Compression mode : Lossy
    Stream size : 125 MiB (8%)
    Language : English
    Default : No
    Forced : No
    Text
    ID : 4
    Format : UTF-8
    Codec ID : S_TEXT/UTF8
    Codec ID/Info : UTF-8 Plain Text
    Language : English
    Default : No
    Forced : No
    Menu
    00:00:00.000 : Chapter 01
    00:05:12.186 : Chapter 02
    00:13:51.914 : Chapter 03
    00:21:08.600 : Chapter 04
    00:28:14.693 : Chapter 05
    00:34:36.365 : Chapter 06
    00:45:35.524 : Chapter 07
    00:53:20.739 : Chapter 08
    01:01:34.982 : Chapter 09
    01:07:30.838 : Chapter 10
    01:15:43.997 : Chapter 11
    01:27:04.385 : Chapter 12

    Скриншот c названием фильма

    Скриншоты

    Скачать .torrent

    Скачать торрент-файл бесплатно и на максимальной скорости!

    Как скачивать? · Что такое торрент? · Рейтинг и ограничения

    !ВНИМАНИЕ!
    Сайт не распространяет и не хранит электронные версии произведений, а занимается лишь лишь предоставлением доступа к создаваемому пользователями каталогу ссылок на торрент-файлы, которые содержат только списки хеш-сумм, убедительная просьба с жалобами обращаться напрямую к пользователю. Файлы для обмена на трекере предоставлены пользователями сайта, и администрация не несёт ответственности за их содержание. Просьба не заливать файлы, защищенные авторскими правами, а также файлы нелегального содержания!

    [Профиль] [ЛС]
    Показать сообщения:    
    Ответить на тему

    Текущее время: Сегодня, в 02:57

    Часовой пояс: GMT + 2



    Вы не можете начинать темы
    Вы не можете отвечать на сообщения
    Вы не можете редактировать свои сообщения
    Вы не можете удалять свои сообщения
    Вы не можете голосовать в опросах
    Вы не можете прикреплять файлы к сообщениям
    Вы не можете скачивать файлы