Register  ·  Log in
Forgot password?

  • Ярость / Aakrosh (Приядаршан / Priyadarshan) [2010, Индия, Боевик, триллер, драма, криминал, DVDRip] MVO (Red Media)

    Reply to topic
    Author Message


    Post 17-Aug-2014 15:39



    Ярость / Aakrosh
    Страна: Индия
    Жанр: Боевик, триллер, драма, криминал
    Год выпуска: 2010
    Продолжительность: 02:25:42
    Перевод: Профессиональный (многоголосый закадровый) Red Media
    Cубтитры: нет
    Режиссер: Приядаршан / Priyadarshan
    В ролях: Аджай Девган, Акшай Кханна, Бипаша Басу, Джайдип Ахлават, Раджеш Бакши, Джаянт Гадекар, Раджендра Гупта, Ашутош Джха, Свапнил Киран Котривар, Амита Патхак, Самира Редди, Паритош Санд, Рима Сен, Урваши Шарма, Винит Шарма, Атул Тивари, Панкадж Трипатхи, Пареш Раваль
    Описание: Студент Делийского университета, представитель низшей касты едет с двумя своими друзьями в деревню Джанджар в штате Бихар. Ночью они смотрят театрализованное представление Рамлила и пропадают без вести. Это дело берутся расследовать Сиддхант Чатурведи и Пратап Кумар, два офицера CBI.
    Доп. информация: Риппер, сведение звука: минакши (Спасибо!)
    Качество видео: DVDRip
    Формат видео: AVI
    Видео: XviD build 50, 720x320 (2.25:1), 23.976 fps, 1146 kbps avg
    Аудио: AC3 Dolby Digital, 48 kHz, 2/0 (L,R) ch, 192.00 kbps avg


    Complete name : F:\Yarost.2010.DVDRip.DivX.AC3.avi
    Format : AVI
    Format/Info : Audio Video Interleave
    File size : 1.37 GiB
    Duration : 2h 25mn
    Overall bit rate : 1 348 Kbps
    Writing application : VirtualDubMod (build 2540/release)
    Writing library : VirtualDubMod build 2540/release
    ID : 0
    Format : MPEG-4 Visual
    Format profile : AdvancedSimple@L5
    Format settings, BVOP : Yes
    Format settings, QPel : No
    Format settings, GMC : No warppoints
    Format settings, Matrix : Default (MPEG)
    Codec ID : DX50
    Codec ID/Hint : DivX 5
    Duration : 2h 25mn
    Bit rate : 1 146 Kbps
    Width : 720 pixels
    Height : 320 pixels
    Display aspect ratio : 2.25
    Frame rate : 23.976 fps
    Resolution : 24 bits
    Colorimetry : 4:2:0
    Scan type : Progressive
    Bits/(Pixel*Frame) : 0.208
    Stream size : 1.17 GiB (85%)
    Writing library : XviD 1.2.1 (UTC 2008-12-04)
    ID : 1
    Format : AC-3
    Format/Info : Audio Coding 3
    Codec ID : 2000
    Duration : 2h 25mn
    Bit rate mode : Constant
    Bit rate : 192 Kbps
    Channel(s) : 2 channels
    Channel positions : L R
    Sampling rate : 48.0 KHz
    Stream size : 200 MiB (14%)
    Alignment : Split accross interleaves
    Interleave, duration : 42 ms (1.00 video frame)
    Interleave, preload duration : 500 ms

    Скриншот c названием фильма


    Download .torrent

    Download free and at maximum speed!

    How to Download? · What is a torrent? · Ratings and Limitations

    The site does not extend and does not store electronic(digital) versions of products, and only gives access to a reference catalogue created by users on torrent-files which contain only lists of the hash-sums, the earnest entreaty, with complaints(abuse) to access directly to the user. Files for an exchange on tracker are given by users of a site, and the administration does not bear the responsibility for their maintenance. The request to not fill in the files protected by copyrights, and also files of the illegal maintenance!

    [Profile] [PM]
    Display posts from previous:    
    Reply to topic

    The time now is: Today 16:55

    All times are GMT + 3 Hours

    You cannot post new topics in this forum
    You cannot reply to topics in this forum
    You cannot edit your posts in this forum
    You cannot delete your posts in this forum
    You cannot vote in polls in this forum
    You cannot attach files in this forum
    You cannot download files in this forum