BitTorrentTracker PerecTracker.org
BitTorrentTracker PerecTracker.org
    
Регистрация  ·  Вход
 
 · 
Забыли пароль?

  • Ярость / Aakrosh (Приядаршан / Priyadarshan) [2010, Индия, Боевик, триллер, драма, криминал, DVDRip] MVO (Red Media)

    Ответить на тему
     
    Автор Сообщение

    Columb

    Создавать темы 17-Авг-2014 14:39

           

    [Цитировать]

    Ярость / Aakrosh
    Страна: Индия
    Жанр: Боевик, триллер, драма, криминал
    Год выпуска: 2010
    Продолжительность: 02:25:42
    Перевод: Профессиональный (многоголосый закадровый) Red Media
    Cубтитры: нет
    Режиссер: Приядаршан / Priyadarshan
    В ролях: Аджай Девган, Акшай Кханна, Бипаша Басу, Джайдип Ахлават, Раджеш Бакши, Джаянт Гадекар, Раджендра Гупта, Ашутош Джха, Свапнил Киран Котривар, Амита Патхак, Самира Редди, Паритош Санд, Рима Сен, Урваши Шарма, Винит Шарма, Атул Тивари, Панкадж Трипатхи, Пареш Раваль
    Описание: Студент Делийского университета, представитель низшей касты едет с двумя своими друзьями в деревню Джанджар в штате Бихар. Ночью они смотрят театрализованное представление Рамлила и пропадают без вести. Это дело берутся расследовать Сиддхант Чатурведи и Пратап Кумар, два офицера CBI.
    Доп. информация: Риппер, сведение звука: минакши (Спасибо!)
    Сэмпл: http://multi-up.com/993038
    Качество видео: DVDRip
    Формат видео: AVI
    Видео: XviD build 50, 720x320 (2.25:1), 23.976 fps, 1146 kbps avg
    Аудио: AC3 Dolby Digital, 48 kHz, 2/0 (L,R) ch, 192.00 kbps avg

    MediaInfo

    General
    Complete name : F:\Yarost.2010.DVDRip.DivX.AC3.avi
    Format : AVI
    Format/Info : Audio Video Interleave
    File size : 1.37 GiB
    Duration : 2h 25mn
    Overall bit rate : 1 348 Kbps
    Writing application : VirtualDubMod 1.5.10.2 (build 2540/release)
    Writing library : VirtualDubMod build 2540/release
    Video
    ID : 0
    Format : MPEG-4 Visual
    Format profile : AdvancedSimple@L5
    Format settings, BVOP : Yes
    Format settings, QPel : No
    Format settings, GMC : No warppoints
    Format settings, Matrix : Default (MPEG)
    Codec ID : DX50
    Codec ID/Hint : DivX 5
    Duration : 2h 25mn
    Bit rate : 1 146 Kbps
    Width : 720 pixels
    Height : 320 pixels
    Display aspect ratio : 2.25
    Frame rate : 23.976 fps
    Resolution : 24 bits
    Colorimetry : 4:2:0
    Scan type : Progressive
    Bits/(Pixel*Frame) : 0.208
    Stream size : 1.17 GiB (85%)
    Writing library : XviD 1.2.1 (UTC 2008-12-04)
    Audio
    ID : 1
    Format : AC-3
    Format/Info : Audio Coding 3
    Codec ID : 2000
    Duration : 2h 25mn
    Bit rate mode : Constant
    Bit rate : 192 Kbps
    Channel(s) : 2 channels
    Channel positions : L R
    Sampling rate : 48.0 KHz
    Stream size : 200 MiB (14%)
    Alignment : Split accross interleaves
    Interleave, duration : 42 ms (1.00 video frame)
    Interleave, preload duration : 500 ms

    Скриншот c названием фильма

    Скриншоты

    Скачать .torrent

    Скачать торрент-файл бесплатно и на максимальной скорости!

    Как скачивать? · Что такое торрент? · Рейтинг и ограничения

    !ВНИМАНИЕ!
    Сайт не распространяет и не хранит электронные версии произведений, а занимается лишь лишь предоставлением доступа к создаваемому пользователями каталогу ссылок на торрент-файлы, которые содержат только списки хеш-сумм, убедительная просьба с жалобами обращаться напрямую к пользователю. Файлы для обмена на трекере предоставлены пользователями сайта, и администрация не несёт ответственности за их содержание. Просьба не заливать файлы, защищенные авторскими правами, а также файлы нелегального содержания!

    [Профиль] [ЛС]
    Показать сообщения:    
    Ответить на тему

    Текущее время: Сегодня, в 08:23

    Часовой пояс: GMT + 2



    Вы не можете начинать темы
    Вы не можете отвечать на сообщения
    Вы не можете редактировать свои сообщения
    Вы не можете удалять свои сообщения
    Вы не можете голосовать в опросах
    Вы не можете прикреплять файлы к сообщениям
    Вы не можете скачивать файлы