BitTorrentTracker PerecTracker.org
BitTorrentTracker PerecTracker.org
    
Регистрация  ·  Вход
 
 · 
Забыли пароль?

  • Мы все из Бюллербю / Дети из Бюллербю / Alla vi barn i Bullerbyn (Лассе Хальстрём / Lasse Hallström) [1986, Швеция, Детский, семейный, HDRip] VO + Original (Sv) + Sub (Rus)

    Ответить на тему
     
    Автор Сообщение

    Columb

    Создавать темы 17-Авг-2014 14:38

           

    [Цитировать]

    Мы все из Бюллербю / Alla vi barn i Bullerbyn-Страна: Швеция
    Жанр: Детский, семейный
    Год выпуска: 1986
    Продолжительность: 01:30:39-Перевод: Одноголосый закадровый [Вячеслав Прошин]
    Cубтитры: русские [Андрей Сивцов] (внешние, srt)
    Оригинальная аудиодорожка: шведский-Режиссер: Лассе Хальстрём / Lasse Hallström-В ролях: Линда Бергстрём, Криспин Диксон Вендениус, Хенрик Ларссон, Эллен Демерус, Анна Салин, Харальд Лёнбру, Туве Эдфельт, Элизабет Нордквист, Ингвар Свенссон, Катти Эдфельт, Билл Йонсон, Анна-Софи Кнапе, Сёрен Петерссон, Зигфрид Эрикссон, Луиза Рэдер, Петер Дывик, Улоф Шёгрен, Эва Карлссон, Лассе Столь и Вилли Турессон-Описание: Всё действие фильма происходит в крохотной деревушке Бюллербю. В ней и проживали, в конце 20-х годов прошлого века, главные герои этого повествования: Анна, Лиса, Бритта, Боссе, Лассе и Улле. Им некогда скучать этим летом: их ждёт ловля раков, поездки на мельницу и ночи на сеновале, жуткая охота за водяным и множество других счастливых моментов беззаботного детства…-Sample | IMDB | КиноПоиск-Тип релиза: HDRip [исх. BDRip 1080p]
    Формат видео: AVI-Видео: 720x400 (1.80:1), 24.000 fps, XviD build 50, 2372 kbps avg, 0.34 bit/pixel
    Аудио 1: 48 kHz, AC3 Dolby Digital, 3/2 (L,C,R,l,r) + LFE ch, 448.00 kbps avg [Russian_VO]
    Аудио 2: 48 kHz, AC3 Dolby Digital, 3/2 (L,C,R,l,r) + LFE ch, 448.00 kbps avg [Original_Sv]-

    MediaInfo

    General
    Complete name : D:\Мои релизы\Alla vi barn i Bullerbyn_HDRip_RG_All_Films\Alla vi barn i Bullerbyn_HDRip_RG_All_Films.avi
    Format : AVI
    Format/Info : Audio Video Interleave
    Format profile : OpenDML
    File size : 2.07 GiB
    Duration : 1h 30mn
    Overall bit rate : 3 275 Kbps
    Writing application : VirtualDubMod 1.6.0.0 SURROUND (build 2560/release)
    Writing library : VirtualDubMod build 2560/release
    Video
    ID : 0
    Format : MPEG-4 Visual
    Format profile : Advanced Simple@L5
    Format settings, BVOP : Yes
    Format settings, QPel : No
    Format settings, GMC : No warppoints
    Format settings, Matrix : Custom
    Codec ID : XVID
    Codec ID/Hint : XviD
    Duration : 1h 30mn
    Bit rate : 2 360 Kbps
    Width : 720 pixels
    Height : 400 pixels
    Display aspect ratio : 16:9
    Frame rate : 24.000 fps
    Color space : YUV
    Chroma subsampling : 4:2:0
    Bit depth : 8 bits
    Scan type : Progressive
    Compression mode : Lossy
    Bits/(Pixel*Frame) : 0.341
    Stream size : 1.49 GiB (72%)
    Writing library : XviD 1.2.1 (UTC 2008-12-04)
    Audio #1
    ID : 1
    Format : AC-3
    Format/Info : Audio Coding 3
    Mode extension : CM (complete main)
    Codec ID : 2000
    Duration : 1h 30mn
    Bit rate mode : Constant
    Bit rate : 448 Kbps
    Channel(s) : 6 channels
    Channel positions : Front: L C R, Side: L R, LFE
    Sampling rate : 48.0 KHz
    Bit depth : 16 bits
    Compression mode : Lossy
    Stream size : 290 MiB (14%)
    Alignment : Split accross interleaves
    Interleave, duration : 42 ms (1.00 video frame)
    Interleave, preload duration : 500 ms
    Audio #2
    ID : 2
    Format : AC-3
    Format/Info : Audio Coding 3
    Mode extension : CM (complete main)
    Codec ID : 2000
    Duration : 1h 30mn
    Bit rate mode : Constant
    Bit rate : 448 Kbps
    Channel(s) : 6 channels
    Channel positions : Front: L C R, Side: L R, LFE
    Sampling rate : 48.0 KHz
    Bit depth : 16 bits
    Compression mode : Lossy
    Stream size : 290 MiB (14%)
    Alignment : Split accross interleaves
    Interleave, duration : 42 ms (1.00 video frame)
    Interleave, preload duration : 500 ms

    Скриншоты

    Скачать .torrent

    Скачать торрент-файл бесплатно и на максимальной скорости!

    Как скачивать? · Что такое торрент? · Рейтинг и ограничения

    !ВНИМАНИЕ!
    Сайт не распространяет и не хранит электронные версии произведений, а занимается лишь лишь предоставлением доступа к создаваемому пользователями каталогу ссылок на торрент-файлы, которые содержат только списки хеш-сумм, убедительная просьба с жалобами обращаться напрямую к пользователю. Файлы для обмена на трекере предоставлены пользователями сайта, и администрация не несёт ответственности за их содержание. Просьба не заливать файлы, защищенные авторскими правами, а также файлы нелегального содержания!

    [Профиль] [ЛС]
    Показать сообщения:    
    Ответить на тему

    Текущее время: Сегодня, в 15:47

    Часовой пояс: GMT + 2



    Вы не можете начинать темы
    Вы не можете отвечать на сообщения
    Вы не можете редактировать свои сообщения
    Вы не можете удалять свои сообщения
    Вы не можете голосовать в опросах
    Вы не можете прикреплять файлы к сообщениям
    Вы не можете скачивать файлы