BitTorrentTracker PerecTracker.org
BitTorrentTracker PerecTracker.org
    
Регистрация  ·  Вход
 
 · 
Забыли пароль?

  • Лидер / Герой Калькутты / Наяк / Naayak (Винайяк В.В. / Vinayk V.V.) [2013, Индия, Боевик, мелодрама, HDRip] MVO (Red Media), VO (zamez)

    Ответить на тему
     
    Автор Сообщение

    Columb

    Создавать темы 17-Авг-2014 14:37

           

    [Цитировать]

    Лидер / Наяк / Naayak
    -Страна: Индия
    Жанр: Боевик, мелодрама
    Год выпуска: 2013
    Продолжительность: 02:39:19--Язык: Телугу
    Перевод 1 : Профессиональный (многоголосый закадровый) - Red Media
    Перевод 2 : Одноголосый закадровый - zamez (по субтитрам wita)
    Cубтитры: Нет--Режиссер: Винайяк В.В. / Vinayk V.V.-В ролях: Рам Чаран Теджа, Каджал Агарвал, Амала Пол, Рагху Бабу, Брахманандам, Рахул Дев, Джаяпракаш Редди, Прадип Рават, Фиш Венкат, Ашиш Видьятхи--Описание: В Колкате зверски убит брат главного министра – по совместительству местный авторитет Такси Сетх. Министр рвет и мечет и требует привезти убийцу пред свои светлые очи, чтобы самолично оторвать ему голову. К делу подключается агент Центрального бюро расследований (Ашиш Видьяртх), охота за убийцей приводит его в столицу Андхра-Прадеша.
    В это время в Хайдарабаде живет скромный программист Черри (Рам Чаран), гуляет себе по ночным клубам, а днем борется с негодяями в зависимости от обстоятельств – кого лестью обезоружит, а кому и кулаком в морду может. Любимый дядя (Брахманандам) нашел приключений на свою голову и, улаживая его проблемы, Черри очутился в доме авторитета Бабджи (Рахул Дев), на чью сестру Мадху (Каджал) тут же положил глаз. Семейство Бабджи подумало и постановило: не надо нам такого зятя, типа скользкий он какой-то, а посему – убить его и забыть. Каково же было удивление бабджиевской орды, когда на их глазах Черри застрелил главного комиссара штата. Только вот Черри комиссара никак не убивал, его в тех местах и близко не было...-- Кинопоиск | Трейлер | Сэмпл--Качество видео: HDRip (исх. BDRip 1080p)
    Формат видео: AVI-Видео: XVID, 672x288, 24 fps, 1174 Kbps
    Аудио #1: MP3, 48,0 КHz, 2 сh, 128 Kbps [Red Media]
    Аудио #2: AC3, 48,0 КHz, 6 сh, 448 Kbps [zamez] - отдельно-Доп. информация по звуку: Три маленьких фрагмента (по неск. секунд) на проф. переводе идут с VO zamez'a (большое ему спасибо =))-Сэмпл / Sample--Риппер: soso4eg---

    Скриншот с названием:

    -

    Скриншоты:

    -

    MI:

    Общее
    Полное имя : U:\[Релизы]\Lider.2013.HDRip.XviD-soso4eg\Lider.2013.HDRip.XviD-soso4eg.avi
    Формат : AVI
    Формат/Информация : Audio Video Interleave
    Размер файла : 1,46 Гбайт
    Продолжительность : 2 ч. 39 м.
    Общий поток : 1312 Кбит/сек
    Режиссёр : soso4eg
    Программа кодирования : VirtualDubMod 1.5.10.3 | www.virtualdub-fr.org || (build 2550/release)
    Библиотека кодирования : VirtualDubMod build 2550/release
    Правообладатель : rutracker.org
    Видео
    Идентификатор : 0
    Формат : MPEG-4 Visual
    Профиль формата : Advanced Simple@L5
    Параметр BVOP формата : 1
    Параметр QPel формата : Нет
    Параметр GMC формата : Без точки перехода
    Параметр матрицы формата : Default (MPEG)
    Идентификатор кодека : XVID
    Идентификатор кодека/Подсказка : XviD
    Продолжительность : 2 ч. 39 м.
    Битрейт : 1174 Кбит/сек
    Ширина : 672 пикселя
    Высота : 288 пикселей
    Соотношение сторон : 2,35:1
    Частота кадров : 24,000 кадра/сек
    Цветовое пространство : YUV
    Субдискретизация насыщенности : 4:2:0
    Битовая глубина : 8 бит
    Тип развёртки : Прогрессивная
    Метод сжатия : С потерями
    Бит/(Пиксели*Кадры) : 0.253
    Размер потока : 1,31 Гбайт (90%)
    Библиотека кодирования : XviD 1.2.1 (UTC 2008-12-04)
    Аудио
    Идентификатор : 1
    Формат : MPEG Audio
    Версия формата : Version 1
    Профиль формата : Layer 3
    Режим : Joint stereo
    Расширение режима : MS Stereo
    Идентификатор кодека : 55
    Идентификатор кодека/Подсказка : MP3
    Продолжительность : 2 ч. 39 м.
    Вид битрейта : Постоянный
    Битрейт : 128 Кбит/сек
    Каналы : 2 канала
    Частота : 48,0 КГц
    Метод сжатия : С потерями
    Размер потока : 146 Мбайт (10%)
    Выравнивание : Соединение по промежуткам
    Продолжительность промежутка : 42 мс. (1,00 видеокадр)
    Время предзагрузки промежутка : 504 мс.
    --
    Скачать .torrent

    Скачать торрент-файл бесплатно и на максимальной скорости!

    Как скачивать? · Что такое торрент? · Рейтинг и ограничения

    !ВНИМАНИЕ!
    Сайт не распространяет и не хранит электронные версии произведений, а занимается лишь лишь предоставлением доступа к создаваемому пользователями каталогу ссылок на торрент-файлы, которые содержат только списки хеш-сумм, убедительная просьба с жалобами обращаться напрямую к пользователю. Файлы для обмена на трекере предоставлены пользователями сайта, и администрация не несёт ответственности за их содержание. Просьба не заливать файлы, защищенные авторскими правами, а также файлы нелегального содержания!

    [Профиль] [ЛС]
    Показать сообщения:    
    Ответить на тему

    Текущее время: Сегодня, в 20:48

    Часовой пояс: GMT + 2



    Вы не можете начинать темы
    Вы не можете отвечать на сообщения
    Вы не можете редактировать свои сообщения
    Вы не можете удалять свои сообщения
    Вы не можете голосовать в опросах
    Вы не можете прикреплять файлы к сообщениям
    Вы не можете скачивать файлы