BitTorrentTracker PerecTracker.org
BitTorrentTracker PerecTracker.org
    
Регистрация  ·  Вход
 
 · 
Забыли пароль?

  • Королева волков / Wolfen Queen / Wolf Devil Woman (Чан Лин / Chang Ling) [1982, Тайвань, боевые искусства, фэнтези, DVDRip] VO (Виктор Береговых)

    Ответить на тему
     
    Автор Сообщение

    Columb

    Создавать темы 17-Авг-2014 14:35

           

    [Цитировать]

    Королева волков / Wolfen Queen / Wolf Devil Woman
    Страна: Тайвань
    Жанр: боевые искусства, фэнтези
    Год выпуска: 1982
    Продолжительность: 01:32:25
    Перевод: Одноголосый закадровый (Виктор Береговых)
    Cубтитры: нет
    Режиссер: Чан Лин / Chang Ling
    В ролях: Чан Лин, Сек Фун, Вон Хап, Хо Хин Нам, Филлип Со
    Описание: Мастер Ли и его верный слуга Вон ищут корень белого женьшеня.Белый женьшень спрятан где-то в горах.Только он может лишить магии Голубого Демона,который желает управлять миром и терроризирует местное население.Заплутав в горах, путешественники чуть было не становятся добычей стаи волков, но внезапно появляется девушка и отзывает хищников. Ли дает ей имя - Снежный Цветок.Девушка не умеет говорить и Ли учит ее первым словам.20 лет назад Голубой Демон убил родителей Снежного Цветка,а ребенка спасли волки и девушка выросла среди них.В детстве волки кормили ее белым женьшенем и теперь в девушке накопилась сила, способная остановить Голубого Демона...(В.Береговых)
    Доп. информация: Фильм снят по популярному китайскому роману «Между Любовью и Славой» (по этому же роману Ронни Ю позже поставит свою «Невесту с белыми волосами»).Причудливый, живой, красочный и наполненный энергией, этот редкий фильм остался незамеченным и неоцененным широкими массами зрителей, однако стал культовым в определенных кругах поклонников азиатского кино.
    Сэмпл: https://www.sendspace.com/file/hx3fk1
    Качество видео: DVDRip
    Формат видео: AVI
    Видео: XviD, 720x400 (16:9), 23.976 fps, 1920 kbps avg, 0.278 bit/pixel
    Аудио: AC3, 48.0 KHz, 192 Kbps, 2 channels
    Релиз форума Tavernaclub

    MediaInfo

    Format : AVI
    Format/Info : Audio Video Interleave
    File size : 1.37 GiB
    Duration : 1h 32mn
    Overall bit rate : 2 118 Kbps
    Writing application : VirtualDubMod 1.5.4.1 (build 2178/release)
    Writing library : VirtualDubMod build 2178/release
    Video
    ID : 0
    Format : MPEG-4 Visual
    Format profile : Simple@L3
    Format settings, BVOP : No
    Format settings, QPel : No
    Format settings, GMC : No warppoints
    Format settings, Matrix : Custom
    Codec ID : XVID
    Codec ID/Hint : XviD
    Duration : 1h 32mn
    Bit rate : 1 920 Kbps
    Width : 720 pixels
    Height : 400 pixels
    Display aspect ratio : 16:9
    Frame rate : 23.976 fps
    Resolution : 24 bits
    Colorimetry : 4:2:0
    Scan type : Progressive
    Bits/(Pixel*Frame) : 0.278
    Stream size : 1.24 GiB (91%)
    Writing library : XviD 1.0.1 (UTC 2004-06-05)
    Audio
    ID : 1
    Format : AC-3
    Format/Info : Audio Coding 3
    Codec ID : 2000
    Duration : 1h 32mn
    Bit rate mode : Constant
    Bit rate : 192 Kbps
    Channel(s) : 2 channels
    Channel positions : L R
    Sampling rate : 48.0 KHz
    Stream size : 127 MiB (9%)
    Alignment : Split accross interleaves
    Interleave, duration : 96 ms (2.30 video frames)
    Interleave, preload duration : 96 ms
    Language : Russian

    Скриншот c названием фильма

    Скриншоты

    Скачать .torrent

    Скачать торрент-файл бесплатно и на максимальной скорости!

    Как скачивать? · Что такое торрент? · Рейтинг и ограничения

    !ВНИМАНИЕ!
    Сайт не распространяет и не хранит электронные версии произведений, а занимается лишь лишь предоставлением доступа к создаваемому пользователями каталогу ссылок на торрент-файлы, которые содержат только списки хеш-сумм, убедительная просьба с жалобами обращаться напрямую к пользователю. Файлы для обмена на трекере предоставлены пользователями сайта, и администрация не несёт ответственности за их содержание. Просьба не заливать файлы, защищенные авторскими правами, а также файлы нелегального содержания!

    [Профиль] [ЛС]
    Показать сообщения:    
    Ответить на тему

    Текущее время: Сегодня, в 20:57

    Часовой пояс: GMT + 2



    Вы не можете начинать темы
    Вы не можете отвечать на сообщения
    Вы не можете редактировать свои сообщения
    Вы не можете удалять свои сообщения
    Вы не можете голосовать в опросах
    Вы не можете прикреплять файлы к сообщениям
    Вы не можете скачивать файлы