BitTorrentTracker PerecTracker.org
BitTorrentTracker PerecTracker.org
    
Регистрация  ·  Вход
 
 · 
Забыли пароль?

  • Плохие слова / Bad Words ( Джейсон Бэйтмен / Jason Bateman ) [2013, США, Комедия, BDRip] VO (Lord32x)

    Ответить на тему
     
    Автор Сообщение

    Columb

    Создавать темы 17-Авг-2014 14:34

           

    [Цитировать]

    Плохие слова / Bad Words
    Страна: США
    Жанр: Комедия
    Год выпуска: 2013
    Продолжительность: 01:29:03
    Перевод: Одноголосый закадровый Lord32x
    Cубтитры: нет
    Режиссер: Джейсон Бэйтмен
    В ролях: Джейсон Бейтмен, Эллисон Джэнни, Кэтрин Хан, Рэйчел Харрис, Бен Фэлкоун, Джудит Хоаг, Филип Бэйкер Холл, Бет Грант, Патриция Белчер, Роэн Чанд.
    Описание: Фильм рассказывает о мужчине, которому тридцать с лишним лет и который является внебрачным сыном организатора национальных конкурсов по орфографии. В связи с этим им движет чувство мести своему родителю, из-за чего он хочет хочет попасть на этот соревнование и попадает на него, найдя в регламенте конкурса лазейку. Но в конечном итого это состязание по правописанию знакомит нашего главного героя с молодым индийским участником, подружившись с которым, на него как будто бы сходит прозрение и он начинает смотреть на мир совершенно другими глазами.
    Сэмпл: http://multi-up.com/992977
    Качество видео: BDRip
    Формат видео: AVI
    Видео: Xvid 720x304 23.976fps 1753kbps
    Аудио: Dolby AC3 48000Hz 6ch 448kbps
    Релиз: GIPERWAREZ

    MediaInfo

    General
    Complete name : C:\Users\User\Downloads\Видео\Bad.Words.2013.BDRip.avi
    Format : AVI
    Format/Info : Audio Video Interleave
    File size : 1.38 GiB
    Duration : 1h 29mn
    Overall bit rate : 2 211 Kbps
    Writing application : VirtualDubMod 1.5.10.3 | www.virtualdub-fr.org || (build 2550/release)
    Writing library : VirtualDubMod build 2550/release
    Video
    ID : 0
    Format : MPEG-4 Visual
    Format profile : Advanced Simple@L5
    Format settings, BVOP : 2
    Format settings, QPel : No
    Format settings, GMC : No warppoints
    Format settings, Matrix : Default (H.263)
    Codec ID : XVID
    Codec ID/Hint : XviD
    Duration : 1h 29mn
    Bit rate : 1 754 Kbps
    Width : 720 pixels
    Height : 304 pixels
    Display aspect ratio : 2.35:1
    Frame rate : 23.976 fps
    Color space : YUV
    Chroma subsampling : 4:2:0
    Bit depth : 8 bits
    Scan type : Progressive
    Compression mode : Lossy
    Bits/(Pixel*Frame) : 0.334
    Stream size : 1.09 GiB (79%)
    Writing library : XviD 1.2.1 (UTC 2008-12-04)
    Audio
    ID : 1
    Format : AC-3
    Format/Info : Audio Coding 3
    Mode extension : CM (complete main)
    Format settings, Endianness : Big
    Codec ID : 2000
    Duration : 1h 29mn
    Bit rate mode : Constant
    Bit rate : 448 Kbps
    Channel(s) : 6 channels
    Channel positions : Front: L C R, Side: L R, LFE
    Sampling rate : 48.0 KHz
    Bit depth : 16 bits
    Compression mode : Lossy
    Stream size : 285 MiB (20%)
    Alignment : Split accross interleaves
    Interleave, duration : 42 ms (1.00 video frame)
    Interleave, preload duration : 500 ms

    Скриншот с названием

    Скриншоты

    Скачать .torrent

    Скачать торрент-файл бесплатно и на максимальной скорости!

    Как скачивать? · Что такое торрент? · Рейтинг и ограничения

    !ВНИМАНИЕ!
    Сайт не распространяет и не хранит электронные версии произведений, а занимается лишь лишь предоставлением доступа к создаваемому пользователями каталогу ссылок на торрент-файлы, которые содержат только списки хеш-сумм, убедительная просьба с жалобами обращаться напрямую к пользователю. Файлы для обмена на трекере предоставлены пользователями сайта, и администрация не несёт ответственности за их содержание. Просьба не заливать файлы, защищенные авторскими правами, а также файлы нелегального содержания!

    [Профиль] [ЛС]
    Показать сообщения:    
    Ответить на тему

    Текущее время: Сегодня, в 06:33

    Часовой пояс: GMT + 2



    Вы не можете начинать темы
    Вы не можете отвечать на сообщения
    Вы не можете редактировать свои сообщения
    Вы не можете удалять свои сообщения
    Вы не можете голосовать в опросах
    Вы не можете прикреплять файлы к сообщениям
    Вы не можете скачивать файлы