BitTorrentTracker PerecTracker.org
BitTorrentTracker PerecTracker.org
    
Регистрация  ·  Вход
 
 · 
Забыли пароль?

  • Люди Икс: Дни минувшего будущего / X-Men: Days of Future Past (Брайан Сингер / Bryan Singer) [2014, США, Великобритания, фантастика, фэнтези, боевик, приключения, WEBRip] Dub (звук c TS)

    Ответить на тему
     
    Автор Сообщение

    Columb

    Создавать темы 17-Авг-2014 14:25

           

    [Цитировать]

    Люди Икс: Дни минувшего будущего / X-Men: Days of Future Past
    Страна: США, Великобритания
    Жанр: фантастика, фэнтези, боевик, приключения
    Год выпуска: 2014
    Продолжительность: 02:11:09
    Перевод: Профессиональный (дублированный) звук c TS
    Cубтитры: Присутствуют вшитые корейские субтитры
    Режиссер: Брайан Сингер / Bryan Singer
    В ролях: Майкл Фассбендер, Джеймс МакЭвой, Хью Джекман, Дженнифер Лоуренс, Иэн МакКеллен, Патрик Стюарт, Николас Холт, Эллен Пейдж, Холли Берри, Питер Динклэйдж
    Описание: В недалёком будущем мутанты близки к истреблению роботами-охотниками на мутантов Стражами. Единственная надежда для мутантов выжить — предотвратить череду роковых событий, приведших к появлению Стражей. С помощью своих способностей, Китти Прайд перемещает сознание Росомахи в его молодое тело в 1973 год. В прошлом всё оказывается не так радужно: молодой Профессор Икс окончательно разочарован в своих идеях, Магнето содержится в тюрьме глубоко под землёй, а человечество не знает как реагировать на широкое появление мутантов…
    Сэмпл: http://multi-up.com/992879
    Качество видео: WEBRip
    Формат видео: AVI
    Видео: 720x400 (4:2:0), 30.181 fps, XviD 1.2.1 ~1234 kbps avg, 0.142 bit/pixel
    Аудио: 48.0 kHz, MPEG Audio, 2/0 (L,R) ch, ~256 kbps

    MediaInfo

    General
    Complete name : F:\Download\X-Men.Days.of.Future.Past..avi
    Format : AVI
    Format/Info : Audio Video Interleave
    File size : 1.38 GiB
    Duration : 2h 11mn
    Overall bit rate : 1 502 Kbps
    Writing application : VirtualDubMod 1.5.10.2 (build 2540/release)
    Writing library : VirtualDubMod build 2540/release
    Video
    ID : 0
    Format : MPEG-4 Visual
    Format profile : Advanced Simple@L5
    Format settings, BVOP : 2
    Format settings, QPel : No
    Format settings, GMC : No warppoints
    Format settings, Matrix : Default (MPEG)
    Codec ID : XVID
    Codec ID/Hint : XviD
    Duration : 2h 11mn
    Bit rate : 1 234 Kbps
    Width : 720 pixels
    Height : 400 pixels
    Display aspect ratio : 16:9
    Frame rate : 30.181 fps
    Color space : YUV
    Chroma subsampling : 4:2:0
    Bit depth : 8 bits
    Scan type : Progressive
    Compression mode : Lossy
    Bits/(Pixel*Frame) : 0.142
    Stream size : 1.13 GiB (82%)
    Writing library : XviD 1.2.1 (UTC 2008-12-04)
    Audio
    ID : 1
    Format : MPEG Audio
    Format version : Version 1
    Format profile : Layer 3
    Mode : Joint stereo
    Codec ID : 55
    Codec ID/Hint : MP3
    Duration : 2h 11mn
    Bit rate mode : Constant
    Bit rate : 256 Kbps
    Channel(s) : 2 channels
    Sampling rate : 48.0 KHz
    Compression mode : Lossy
    Stream size : 240 MiB (17%)
    Alignment : Aligned on interleaves
    Interleave, duration : 33 ms (1.00 video frame)
    Interleave, preload duration : 504 ms

    Скриншот c названием фильма

    Скриншоты

    Скачать .torrent

    Скачать торрент-файл бесплатно и на максимальной скорости!

    Как скачивать? · Что такое торрент? · Рейтинг и ограничения

    !ВНИМАНИЕ!
    Сайт не распространяет и не хранит электронные версии произведений, а занимается лишь лишь предоставлением доступа к создаваемому пользователями каталогу ссылок на торрент-файлы, которые содержат только списки хеш-сумм, убедительная просьба с жалобами обращаться напрямую к пользователю. Файлы для обмена на трекере предоставлены пользователями сайта, и администрация не несёт ответственности за их содержание. Просьба не заливать файлы, защищенные авторскими правами, а также файлы нелегального содержания!

    [Профиль] [ЛС]

    -746

    Создавать темы 07-Дек-2014 13:24 (спустя 3 месяца 20 дней)

           

    Топик был перенесен из форума Зарубежные Фильмы (Новинки) в форум Фильмы 2014

    -sasha2006 

    _________________
    Как бы ты высоко не летал, не забывай, с кем ты ползал..
     
    Показать сообщения:    
    Ответить на тему

    Текущее время: Сегодня, в 07:58

    Часовой пояс: GMT + 2



    Вы не можете начинать темы
    Вы не можете отвечать на сообщения
    Вы не можете редактировать свои сообщения
    Вы не можете удалять свои сообщения
    Вы не можете голосовать в опросах
    Вы не можете прикреплять файлы к сообщениям
    Вы не можете скачивать файлы