BitTorrentTracker PerecTracker.org
BitTorrentTracker PerecTracker.org
    
Регистрация  ·  Вход
 
 · 
Забыли пароль?

  • Невыносимая жестокость / Intolerable Cruelty (Джоэл Коэн / Joel Coen, Итан Коэн / Ethan Coen) [2003, США, Комедия, мелодрама, криминал, BDRip-AVC] Dub + Sub Rus, Eng + Original Eng

    Ответить на тему
     
    Автор Сообщение

    Columb

    Создавать темы 17-Авг-2014 12:37

           

    [Цитировать]

    Невыносимая жестокость / Intolerable Cruelty«Он привык побеждать. Она не любит проигрывать»-Страна: США
    Жанр: Комедия, мелодрама, криминал
    Год выпуска: 2003
    Продолжительность: 01:39:34
    Перевод: Профессиональный (дублированный)
    Cубтитры: Rus, Eng (Full, SDH)
    Оригинальная аудиодорожка: английский
    Режиссер: Джоэл Коэн / Joel Coen, Итан Коэн / Ethan Coen
    В ролях
    Джордж Клуни / George Clooney (Miles Massey)
    Кэтрин Зета-Джонс / Catherine Zeta-Jones (Marylin Rexroth)
    Джеффри Раш (Donovan Donaly), Седрик 'Развлекатель' (Gus Petch), Эдвард Херрманн (Rex Rexroth), Пол Адельштейн (Wrigley), Ричард Дженкинс (Freddy Bender), Билли Боб Торнтон (Howard D. Doyle), Джулия Даффи (Sarah Sorkin), Джонатан Хэдари (Heinz, the Baron Krauss von Espy), Том Элдридж (Herb Myerson), Стэйси Трэвис (Bonnie Donaly)-ОписаниеУ знаменитого адвоката Майлза Масси есть все - слава, деньги, благодарная клиентура и брачный контракт, названный в его честь.
    Но Майлз чувствует, что ему не хватает поединка с достойным врагом.
    Судьба сводит его с соблазнительной Мэрилин Рексрот, брачной аферисткой, которая собирается развестись с его клиентом и при этом значительно пополнить свой банковский счет.
    И пусть в этот раз ей не повезло - она тут же находит новую жертву, нефтяного магната Дойла, и начинает игру, в которой Майлзу придется еще не раз удивляться...-Сэмпл


    Качество видео: BDRip-AVC
    Формат видео: MKV
    Видео: AVC 2370 Kbps 960 x 520 (1.846) 23.976 fps
    Аудио: AC-3 384 Kbps 6 channels, 48.0 KHz Rus DUB
    Аудио 2: AC-3 384 Kbps 6 channels, 48.0 KHz Eng
    Формат субтитров: softsub (SRT)
    MediaInfo | Log

    Log

    x264 [info]: frame I:1191 Avg QP:16.05 size:103647
    x264 [info]: frame P:28469 Avg QP:19.34 size: 29156
    x264 [info]: frame B:113577 Avg QP:22.36 size: 7167
    x264 [info]: consecutive B-frames: 1.8% 2.2% 5.3% 14.9% 16.8% 39.5% 8.0% 3.3% 3.1% 1.5% 1.5% 0.9% 1.2%
    x264 [info]: mb I I16..4: 6.9% 68.5% 24.6%
    x264 [info]: mb P I16..4: 0.3% 5.6% 1.0% P16..4: 31.5% 35.6% 15.9% 2.5% 0.4% skip: 7.2%
    x264 [info]: mb B I16..4: 0.0% 0.6% 0.1% B16..8: 36.3% 16.9% 3.0% direct: 4.1% skip:39.0% L0:46.8% L1:42.9% BI:10.3%
    x264 [info]: 8x8 transform intra:78.6% inter:58.9%
    x264 [info]: direct mvs spatial:97.8% temporal:2.2%
    x264 [info]: coded y,uvDC,uvAC intra: 91.9% 87.5% 70.4% inter: 22.9% 18.7% 7.0%
    x264 [info]: i16 v,h,dc,p: 35% 15% 14% 36%
    x264 [info]: i8 v,h,dc,ddl,ddr,vr,hd,vl,hu: 13% 7% 7% 10% 14% 13% 12% 11% 12%
    x264 [info]: i4 v,h,dc,ddl,ddr,vr,hd,vl,hu: 15% 9% 6% 9% 14% 13% 12% 11% 12%
    x264 [info]: i8c dc,h,v,p: 42% 20% 19% 18%
    x264 [info]: Weighted P-Frames: Y:2.3% UV:1.1%
    x264 [info]: ref P L0: 39.7% 10.1% 19.3% 6.5% 6.5% 4.1% 4.5% 2.1% 2.3% 1.6% 1.8% 1.4% 0.1% 0.0%
    x264 [info]: ref B L0: 63.9% 13.8% 7.7% 4.0% 2.9% 2.5% 2.0% 1.4% 1.0% 0.6% 0.2%
    x264 [info]: ref B L1: 90.3% 9.7%
    x264 [info]: kb/s:2366.85
    x264 [total]: encoded 143237 frames, 10.79 fps, 2366.85 kb/s, duration 3:41:08.92
    Format : Matroska
    Format version : Version 4 / Version 2
    File size : 2.18 GiB
    Duration : 1h 39mn
    Overall bit rate : 3 137 Kbps
    Encoded date : UTC 2014-08-16 16:59:31
    Writing application : mkvmerge v6.7.0 ('Back to the Ground') 32bit built on Jan 8 2014 15:03:17
    Writing library : libebml v1.3.0 + libmatroska v1.4.1
    Video
    ID : 1
    Format : AVC
    Format/Info : Advanced Video Codec
    Format profile : High@L4.1
    Format settings, CABAC : Yes
    Format settings, ReFrames : 12 frames
    Codec ID : V_MPEG4/ISO/AVC
    Duration : 1h 39mn
    Bit rate : 2 370 Kbps
    Width : 960 pixels
    Height : 520 pixels
    Display aspect ratio : 1.85:1
    Frame rate mode : Constant
    Frame rate : 23.976 fps
    Color space : YUV
    Chroma subsampling : 4:2:0
    Bit depth : 8 bits
    Scan type : Progressive
    Bits/(Pixel*Frame) : 0.198
    Stream size : 1.60 GiB (74%)
    Writing library : x264 core 142 r2453kMod ea0ca51
    Encoding settings : cabac=1 / ref=12 / deblock=1:-2:-1 / analyse=0x3:0x133 / me=umh / subme=11 / psy=1 / fade_compensate=0.00 / psy_rd=1.00:0.05 / mixed_ref=1 / me_range=32 / chroma_me=1 / trellis=2 / 8x8dct=1 / cqm=0 / deadzone=21,11 / fast_pskip=0 / chroma_qp_offset=-3 / threads=12 / lookahead_threads=3 / sliced_threads=0 / nr=0 / decimate=1 / interlaced=0 / bluray_compat=0 / constrained_intra=0 / fgo=0 / bframes=12 / b_pyramid=2 / b_adapt=2 / b_bias=0 / direct=3 / weightb=1 / open_gop=0 / weightp=2 / keyint=250 / keyint_min=23 / scenecut=40 / intra_refresh=0 / rc_lookahead=60 / rc=2pass / mbtree=1 / bitrate=2370 / ratetol=1.0 / qcomp=0.60 / qpmin=0 / qpmax=69 / qpstep=4 / cplxblur=20.0 / qblur=0.5 / ip_ratio=1.40 / aq=1:1.00
    Language : English
    Default : Yes
    Forced : No
    Audio #1
    ID : 2
    Format : AC-3
    Format/Info : Audio Coding 3
    Mode extension : CM (complete main)
    Format settings, Endianness : Big
    Codec ID : A_AC3
    Duration : 1h 39mn
    Bit rate mode : Constant
    Bit rate : 384 Kbps
    Channel(s) : 6 channels
    Channel positions : Front: L C R, Side: L R, LFE
    Sampling rate : 48.0 KHz
    Bit depth : 16 bits
    Compression mode : Lossy
    Stream size : 273 MiB (12%)
    Title : Dub
    Language : Russian
    Default : Yes
    Forced : No
    Audio #2
    ID : 3
    Format : AC-3
    Format/Info : Audio Coding 3
    Mode extension : CM (complete main)
    Format settings, Endianness : Big
    Codec ID : A_AC3
    Duration : 1h 39mn
    Bit rate mode : Constant
    Bit rate : 384 Kbps
    Channel(s) : 6 channels
    Channel positions : Front: L C R, Side: L R, LFE
    Sampling rate : 48.0 KHz
    Bit depth : 16 bits
    Compression mode : Lossy
    Stream size : 273 MiB (12%)
    Language : English
    Default : No
    Forced : No
    Text #1
    ID : 4
    Format : UTF-8
    Codec ID : S_TEXT/UTF8
    Codec ID/Info : UTF-8 Plain Text
    Language : Russian
    Default : No
    Forced : No
    Text #2
    ID : 5
    Format : UTF-8
    Codec ID : S_TEXT/UTF8
    Codec ID/Info : UTF-8 Plain Text
    Title : Full
    Language : English
    Default : No
    Forced : No
    Text #3
    ID : 6
    Format : UTF-8
    Codec ID : S_TEXT/UTF8
    Codec ID/Info : UTF-8 Plain Text
    Title : SDH
    Default : No
    Forced : No
    Menu
    00:00:00.000 : en:1. Pool Boy [Main Titles]
    00:08:48.277 : en:2. Massaging the Truth
    00:12:04.140 : en:3. David and Goliath
    00:14:59.023 : en:4. A Job Well Done
    00:19:23.370 : en:5. The War Room
    00:22:15.959 : en:6. Negotiation
    00:26:57.574 : en:7. The Real Goal
    00:33:02.814 : en:8. Tenzing Norgay
    00:41:45.711 : en:9. Just the Girls
    00:43:51.211 : en:10. Inner Sanctum
    00:46:01.800 : en:11. The New Guy
    00:54:06.952 : en:12. Eating His Words
    00:59:42.745 : en:13. The Moral Universe
    01:06:11.759 : en:14. Wee Kirk
    01:10:48.619 : en:15. Keynote Address
    01:16:49.896 : en:16. Soap
    01:19:34.811 : en:17. Second Thoughts
    01:23:19.411 : en:18. Last Train Ride
    01:25:34.420 : en:19. Canceling the Contract
    01:30:34.637 : en:20. A Hit [End Titles

    Скриншоты

    Скачать .torrent

    Скачать торрент-файл бесплатно и на максимальной скорости!

    Как скачивать? · Что такое торрент? · Рейтинг и ограничения

    !ВНИМАНИЕ!
    Сайт не распространяет и не хранит электронные версии произведений, а занимается лишь лишь предоставлением доступа к создаваемому пользователями каталогу ссылок на торрент-файлы, которые содержат только списки хеш-сумм, убедительная просьба с жалобами обращаться напрямую к пользователю. Файлы для обмена на трекере предоставлены пользователями сайта, и администрация не несёт ответственности за их содержание. Просьба не заливать файлы, защищенные авторскими правами, а также файлы нелегального содержания!

    [Профиль] [ЛС]
    Показать сообщения:    
    Ответить на тему

    Текущее время: Сегодня, в 12:45

    Часовой пояс: GMT + 2



    Вы не можете начинать темы
    Вы не можете отвечать на сообщения
    Вы не можете редактировать свои сообщения
    Вы не можете удалять свои сообщения
    Вы не можете голосовать в опросах
    Вы не можете прикреплять файлы к сообщениям
    Вы не можете скачивать файлы