BitTorrentTracker PerecTracker.org
BitTorrentTracker PerecTracker.org
    
Регистрация  ·  Вход
 
 · 
Забыли пароль?

  • Нарковойна / Drug War / Du zhan (Джонни То / Johnnie To) [2012, Гонконг, Китай, боевик, триллер, драма, криминал, HDRip] MVO [НТВ]

    Ответить на тему
     
    Автор Сообщение

    Columb

    Создавать темы 17-Авг-2014 12:35

           

    [Цитировать]

    Нарковойна / Drug War / Du zhan--Страна: Гонконг, Китай
    Жанр: боевик, триллер, драма, криминал
    Год выпуска: 2012
    Продолжительность: 01:46:30-Перевод: Профессиональный (многоголосый закадровый) [НТВ]-Cубтитры: нет
    Оригинальная аудиодорожка: нет
    Режиссер: Джонни То / Johnnie To
    В ролях: Луис Ку, Сунь Хунлэй, И Хуан, Мишель Йе, Сиу-Фай Чунг, Уоллес Чунг, Тао Гуо, Ка Танг Лам, Сует Лам, Гуанджи Ли..
    Описание: Капитан полиции Чжан Кто из отдела по борьбе с незаконным оборотом наркотиков, начинает допрос наркобарона по имени Тимми Чой после того как он был арестован. Чтобы избежать смертной казни, Чой обязуется раскрыть информацию о своих партнерах. Удастся ли ему запутать следствие и выйти сухим из воды или же ниточка оборвётся на середине…
    Релиз от -
    Качество видео: HDRip
    Формат видео: AVI
    Видео: MPEG-4 Visual at 1765 Кбит/сек; 720 x 304 (2.368) at 24.000 fps
    Аудио: AC-3 at 192 Кбит/сек; 2 канала, 48,0 КГц
    Автор -

    MediaInfo

    Общее
    Полное имя : D:\Фильмы\Азиатские\Нарковойна\Drug War.2012.HDRip.XviD.1400MB. rip by [Assassin's Creed].avi
    Формат : AVI
    Формат/Информация : Audio Video Interleave
    Размер файла : 1,46 Гбайт
    Продолжительность : 1 ч. 46 м.
    Общий поток : 1967 Кбит/сек
    Программа кодирования : VirtualDubMod 1.5.10.2 (build 2540/release)
    Библиотека кодирования : VirtualDubMod build 2540/release
    Видео
    Идентификатор : 0
    Формат : MPEG-4 Visual
    Профиль формата : Advanced Simple@L5
    Параметр BVOP формата : 1
    Параметр QPel формата : Нет
    Параметр GMC формата : Без точки перехода
    Параметр матрицы формата : Default (MPEG)
    Идентификатор кодека : XVID
    Идентификатор кодека/Подсказка : XviD
    Продолжительность : 1 ч. 46 м.
    Битрейт : 1765 Кбит/сек
    Ширина : 720 пикселей
    Высота : 304 пикселя
    Соотношение сторон : 2,35:1
    Частота кадров : 24,000 кадра/сек
    Цветовое пространство : YUV
    Субдискретизация насыщенности : 4:2:0
    Битовая глубина : 8 бит
    Тип развёртки : Прогрессивная
    Метод сжатия : С потерями
    Бит/(Пиксели*Кадры) : 0.336
    Размер потока : 1,31 Гбайт (90%)
    Библиотека кодирования : XviD 1.2.1 (UTC 2008-12-04)
    Аудио
    Идентификатор : 1
    Формат : AC-3
    Формат/Информация : Audio Coding 3
    Расширение режима : CM (complete main)
    Параметр Endianness формата : Big
    Идентификатор кодека : 2000
    Продолжительность : 1 ч. 46 м.
    Вид битрейта : Постоянный
    Битрейт : 192 Кбит/сек
    Каналы : 2 канала
    Расположение каналов : Front: L R
    Частота : 48,0 КГц
    Битовая глубина : 16 бит
    Метод сжатия : С потерями
    Размер потока : 146 Мбайт (10%)
    Выравнивание : Разделение по промежуткам
    Продолжительность промежутка : 42 мс. (1,00 видеокадр)
    Время предзагрузки промежутка : 500 мс.

    Скриншот c названием фильма

    Скриншоты

    Скачать .torrent

    Скачать торрент-файл бесплатно и на максимальной скорости!

    Как скачивать? · Что такое торрент? · Рейтинг и ограничения

    !ВНИМАНИЕ!
    Сайт не распространяет и не хранит электронные версии произведений, а занимается лишь лишь предоставлением доступа к создаваемому пользователями каталогу ссылок на торрент-файлы, которые содержат только списки хеш-сумм, убедительная просьба с жалобами обращаться напрямую к пользователю. Файлы для обмена на трекере предоставлены пользователями сайта, и администрация не несёт ответственности за их содержание. Просьба не заливать файлы, защищенные авторскими правами, а также файлы нелегального содержания!

    [Профиль] [ЛС]
    Показать сообщения:    
    Ответить на тему

    Текущее время: Сегодня, в 11:47

    Часовой пояс: GMT + 2



    Вы не можете начинать темы
    Вы не можете отвечать на сообщения
    Вы не можете редактировать свои сообщения
    Вы не можете удалять свои сообщения
    Вы не можете голосовать в опросах
    Вы не можете прикреплять файлы к сообщениям
    Вы не можете скачивать файлы