BitTorrentTracker PerecTracker.org
BitTorrentTracker PerecTracker.org
    
Регистрация  ·  Вход
 
 · 
Забыли пароль?

  • Дом Глории / Gloria's House / Сезон: 1 / Серии: 26 из 26 (Джо-Анн Боаг, Бренда Чат / Jo-anne Boag) [2000, Детский, семейный, приключения, WEB-DL] MVO

    Ответить на тему
     
    Автор Сообщение

    Columb

    Создавать темы 16-Авг-2014 22:56

           

    [Цитировать]

    Дом Глории / Gloria's House
    Страна: Австралия, Германия
    Жанр: Детский, семейный, приключения
    Продолжительность: 00:24:08
    Год выпуска: 2000
    Перевод: Профессиональный (многоголосый закадровый)
    Русские субтитры: нет
    Сэмпл: http://rusfolder.com/41472377
    Режиссёр: Джо-Анн Боаг, Бренда Чат / Jo-anne Boag
    Описание: Дом Глории - самый беспорядочный и безумный дом на улице, полной идеальных домиков, но там веселее и интереснее, чем в любых "чистеньких" местечках Чиллсвилля. Добро пожаловать, ноги можете не вытирать!
    Список серий:
    01. Уличная Вечеринка (Street Party)
    02. Шоколадный Барабанщик (The Chocolate Drummer)
    03. 5 Минут Славы (5 Minutes of Flame)
    04. Смотри, Мама, Я танцую! (Look Mum I'm Dancing!)
    05. Разрыв Отношений (Communication Breakdown)
    06. Потерянная в Городе (Lost In The City)
    07. Фирменный (Home Baked)
    08. Время Стирки (Coming Clean)
    09. Старые Добрые Времена (The Good Old Days)
    10. Не Барабанщик (A Different Drum)
    11. Смена Жилища (New Lwase Of Life)
    12. Буря (The Storm)
    13. Особенный Человек (Super Special Person)
    14. Дом, Милый Дом (Home Sweet Home)
    15. Двойной Сюрприз (Double Surprise)
    16. Выбери Меня! (Pick Me!)
    17. Я хочу домой! (I Wanna Go Home!)
    18. Хороший Шрифт (The Fine Print)
    19. День Открытых Дверей (Fickle Fete)
    20. Опередить Нитов (Keeping Up With The Nits)
    21. Колеса (Wheels)
    22. С Такими Врагами (With Enemies Like These)
    23. Долгие Выходные (The Long Weekend)
    24. Пропала Собака (Dog Gone)
    25. Славная Пища Глории (Food Gloria's Food)
    26. Нотта Идет На Свидание! (Notta Date!)
    Качество: WEB-DL
    Формат: MP4
    Видео: AVC, 704x528, 2046 kbps, 25 fps
    Аудио: AAC, 44100 Hz, 158 kbps, 2 channels
    Субтитры: отсутствуют

    Подробные технические данные

    ОбщееПолное имя : D:\Dvar\Gloria's House - Дом Глории\01. Уличная Вечеринка (Street Party).mp4Формат : MPEG-4Профиль формата : Base MediaИдентификатор кодека : isomРазмер файла : 383 МбайтПродолжительность : 24 м.Режим общего битрейта : ПеременныйОбщий поток : 2210 Кбит/секПрограмма кодирования : Lavf54.59.106
    ВидеоИдентификатор : 1Формат : AVCФормат/Информация : Advanced Video CodecПрофиль формата : High@L5.1Параметр CABAC формата : ДаПараметр ReFrames формата : 4 кадраИдентификатор кодека : avc1Идентификатор кодека/Информация : Advanced Video CodingПродолжительность : 24 м.Вид битрейта : ПеременныйБитрейт : 2046 Кбит/секМаксимальный битрейт : 2400 Кбит/секШирина : 704 пикселяВысота : 528 пикселейСоотношение сторон : 4:3Режим частоты кадров : ПостоянныйЧастота кадров : 25,000 кадров/секЦветовое пространство : YUVСубдискретизация насыщенности : 4:2:0Битовая глубина : 8 битТип развёртки : ПрогрессивнаяБит/(Пиксели*Кадры) : 0.220Размер потока : 354 Мбайт (93%)
    АудиоИдентификатор : 2Формат : AACФормат/Информация : Advanced Audio CodecПрофиль формата : LCИдентификатор кодека : 40Продолжительность : 24 м.Вид битрейта : ПостоянныйБитрейт : 158 Кбит/секКаналы : 2 каналаРасположение каналов : Front: L RЧастота : 44,1 КГцМетод сжатия : С потерямиРазмер потока : 27,3 Мбайт (7%)

    Скриншоты

    Скачать .torrent

    Скачать торрент-файл бесплатно и на максимальной скорости!

    Как скачивать? · Что такое торрент? · Рейтинг и ограничения

    !ВНИМАНИЕ!
    Сайт не распространяет и не хранит электронные версии произведений, а занимается лишь лишь предоставлением доступа к создаваемому пользователями каталогу ссылок на торрент-файлы, которые содержат только списки хеш-сумм, убедительная просьба с жалобами обращаться напрямую к пользователю. Файлы для обмена на трекере предоставлены пользователями сайта, и администрация не несёт ответственности за их содержание. Просьба не заливать файлы, защищенные авторскими правами, а также файлы нелегального содержания!

    [Профиль] [ЛС]

    -746

    Создавать темы 16-Мар-2016 11:12 (спустя 1 год 6 месяцев)

           

    Топик был перенесен из форума Мультфильмы в форум Мультсериалы


    -sasha2006

    _________________
    Как бы ты высоко не летал, не забывай, с кем ты ползал..
     
    Показать сообщения:    
    Ответить на тему

    Текущее время: Сегодня, в 20:01

    Часовой пояс: GMT + 2



    Вы не можете начинать темы
    Вы не можете отвечать на сообщения
    Вы не можете редактировать свои сообщения
    Вы не можете удалять свои сообщения
    Вы не можете голосовать в опросах
    Вы не можете прикреплять файлы к сообщениям
    Вы не можете скачивать файлы