BitTorrentTracker PerecTracker.org
BitTorrentTracker PerecTracker.org
    
Регистрация  ·  Вход
 
 · 
Забыли пароль?

  • Тихая вода / Futatsume no mado / Still the water (Наоми Кавасе / Naomi Kawase) [2014, Япония, Испания, Франция, Драма, DVDRip-АVC] + Sub Rus

    Ответить на тему
     
    Автор Сообщение

    Columb

    Создавать темы 16-Авг-2014 22:53

           

    [Цитировать]

    Тихая вода / Futatsume no mado / Still the water
    Страна: Япония, Испания, Франция
    Жанр: Драма
    Год выпуска: 2014
    Продолжительность: 02:07:14
    Перевод: Субтитры: creo140
    Cубтитры: русские, английские
    Оригинальная аудиодорожка: японский
    Режиссер: Наоми Кавасе / Naomi Kawase
    В ролях: Миюки Мацуда, Дзюн Мураками, Хидэо Сакаки, Тэтта Сугимото, Фудзио Токита, Макико Ватанабэ, Джан Ёшинага
    Описание: Ночью, в полнолуние, на острове Амами-Осима, 16-летний юноша находит труп, плавающий в море. Он просит свою подружку помочь ему в разгадке тайны. Юной паре предстоит научиться взрослеть, понимая естественные циклы жизни, любви и смерти…
    Доп. информация:

    Сэмпл: http://multi-up.com/992676
    Качество видео: DVDRip-АVC
    Формат видео: MKV
    Видео: MPEG4 Video (H264) 1280x544 23.976fps
    Аудио: Dolby AC3 48000Hz stereo 192kbps
    Формат субтитров: softsub (SRT)
    Номинации:: Каннский кинофестиваль, Золотая пальмовая ветвь 2014

    Фрагмент субтитров

    681
    01:51:39,860 --> 01:51:45,550
    Ты действительно
    собираешься покинуть меня?
    682
    01:51:47,990 --> 01:51:56,004
    Что же мне делать,
    683
    01:51:56,005 --> 01:51:59,900
    когда ты уйдёшь?
    684
    01:52:05,020 --> 01:52:09,590
    И тому, кто уходит, тоже тяжело.
    685
    01:52:17,660 --> 01:52:22,690
    Ты действительно
    собираешься покинуть меня?
    686
    01:52:25,690 --> 01:52:29,620
    Я должен уехать на далёкий остров.
    687
    01:52:33,560 --> 01:52:37,690
    Тысячу лет,
    десятки тысяч лет,
    688
    01:52:40,360 --> 01:52:43,220
    Я хотел бы жить долго,
    689
    01:52:45,360 --> 01:52:50,220
    Я хотел бы жить.
    690
    01:54:32,950 --> 01:54:35,090
    Эти дети
    691
    01:54:36,950 --> 01:54:39,290
    ещё не понимают
    692
    01:54:40,750 --> 01:54:43,320
    что находятся в море.
    693
    01:54:54,220 --> 01:54:58,920
    Я больше не могу плыть,
    694
    01:55:01,620 --> 01:55:04,390
    Я не могу больше плыть,

    MediaInfo

    Format : Matroska
    Format version : Version 2
    File size : 1.98 GiB
    Duration : 2h 0mn
    Overall bit rate : 2 345 Kbps
    Movie name : Futatsume.no.Mado.2014.1080p.HDTV.x264.10bit.AAC5.1
    Encoded date : UTC 2014-06-19 21:24:51
    Writing application : DVDFab 9.1.4.0
    Writing library : libebml v0.7.8 + libmatroska v0.8.1
    Video
    ID : 1
    Format : AVC
    Format/Info : Advanced Video Codec
    Format profile : High@L4.1
    Format settings, CABAC : Yes
    Format settings, ReFrames : 2 frames
    Codec ID : V_MPEG4/ISO/AVC
    Duration : 2h 0mn
    Bit rate : 2 106 Kbps
    Width : 1 280 pixels
    Height : 544 pixels
    Display aspect ratio : 2.35:1
    Frame rate mode : Constant
    Frame rate : 23.976 fps
    Color space : YUV
    Chroma subsampling : 4:2:0
    Bit depth : 8 bits
    Scan type : Progressive
    Bits/(Pixel*Frame) : 0.126
    Stream size : 1.78 GiB (90%)
    Writing library : x264 core
    Default : Yes
    Forced : No
    Color primaries : BT.709
    Transfer characteristics : BT.709
    Matrix coefficients : BT.709
    Audio
    ID : 2
    Format : AC-3
    Format/Info : Audio Coding 3
    Mode extension : CM (complete main)
    Format settings, Endianness : Big
    Codec ID : A_AC3
    Duration : 2h 0mn
    Bit rate mode : Constant
    Bit rate : 192 Kbps
    Channel(s) : 2 channels
    Channel positions : Front: L R
    Sampling rate : 48.0 KHz
    Bit depth : 16 bits
    Compression mode : Lossy
    Stream size : 166 MiB (8%)
    Default : Yes
    Forced : No

    Скриншот c названием фильма

    Скриншоты

    Скачать .torrent

    Скачать торрент-файл бесплатно и на максимальной скорости!

    Как скачивать? · Что такое торрент? · Рейтинг и ограничения

    !ВНИМАНИЕ!
    Сайт не распространяет и не хранит электронные версии произведений, а занимается лишь лишь предоставлением доступа к создаваемому пользователями каталогу ссылок на торрент-файлы, которые содержат только списки хеш-сумм, убедительная просьба с жалобами обращаться напрямую к пользователю. Файлы для обмена на трекере предоставлены пользователями сайта, и администрация не несёт ответственности за их содержание. Просьба не заливать файлы, защищенные авторскими правами, а также файлы нелегального содержания!

    [Профиль] [ЛС]
    Показать сообщения:    
    Ответить на тему

    Текущее время: Сегодня, в 06:13

    Часовой пояс: GMT + 2



    Вы не можете начинать темы
    Вы не можете отвечать на сообщения
    Вы не можете редактировать свои сообщения
    Вы не можете удалять свои сообщения
    Вы не можете голосовать в опросах
    Вы не можете прикреплять файлы к сообщениям
    Вы не можете скачивать файлы