BitTorrentTracker PerecTracker.org
BitTorrentTracker PerecTracker.org
    
Регистрация  ·  Вход
 
 · 
Забыли пароль?

  • Таркан против викингов / Tarkan Viking kani (Мехмет Аслан / Mehmet Aslan) [1971, Турция, приключения, DVDRip] VO (Kolobroad)

    Ответить на тему
     
    Автор Сообщение

    Columb

    Создавать темы 16-Авг-2014 22:40

           

    [Цитировать]

    Таркан против викингов / Tarkan Viking kani
    Страна: Турция
    Жанр: приключения
    Год выпуска: 1971
    Продолжительность: 01:26:34
    Перевод: автор не известен
    Озвучка: Одноголосая закадровая (Kolobroad)
    Cубтитры: нет
    Оригинальная аудиодорожка: нет
    Режиссер: Мехмет Аслан / Mehmet Aslan
    В ролях:
    Картал Тибет, Ева Бендер, Билал Инчи, Тарик Себнем, Атиф Каптан, Юсуф Сезер и др.
    Описание:
    Дочь вождя гуннов Аттилы Ёнка, путешествующая под охраной могучего гуннского воина Таркана и его двух преданных друзей-волков, останавливается в приморской крепости.
    На крепость внезапно нападают викинги под предводительством Торо, нанятого китайской принцессой Лотус для похищения дочери Аттилы.
    В кровопролитном сражении безжалостные викинги тяжело ранят Таркана, убивают одного из его волков и пленяют Ёнку.
    Оправившись от ран, Таркан отправляется мстить за своего друга-волка и освобождать дочь Аттилы из рук злодея Торо...
    Доп. информация:
    Рип найден в сети.
    Озвучка выполнена по найденным в сети русским субтитрам, автор перевода неизвестен.
    IMDB
    КиноПоиск
    Сэмпл: http://multi-up.com/992797
    Качество видео: DVDRip
    Формат видео: AVI
    Видео: XviD, 576x432 (4:3), 29,97 fps, ~1949 kbps
    Аудио: MPEG Layer 3, 48 kHz, ~192 kbps, 2 ch (русский)

    MediaInfo

    Полное имя : Tarkan Viking kani (1971).avi
    Формат : AVI
    Формат/Информация : Audio Video Interleave
    Размер файла : 1,30 Гбайт
    Продолжительность : 1 ч. 26 м.
    Общий поток : 2153 Кбит/сек
    Программа кодирования : VirtualDubMod 1.5.10.2 (build 2540/release)
    Библиотека кодирования : VirtualDubMod build 2540/release
    Видео
    Идентификатор : 0
    Формат : MPEG-4 Visual
    Профиль формата : Advanced Simple@L5
    Параметр BVOP формата : 2
    Параметр QPel формата : Нет
    Параметр GMC формата : Без точки перехода
    Параметр матрицы формата : Выборочная
    Идентификатор кодека : XVID
    Идентификатор кодека/Подсказка : XviD
    Продолжительность : 1 ч. 26 м.
    Битрейт : 1949 Кбит/сек
    Ширина : 576 пикселей
    Высота : 432 пикселя
    Соотношение сторон : 4:3
    Частота кадров : 29,970 кадров/сек
    Цветовое пространство : YUV
    Субдискретизация насыщенности : 4:2:0
    Битовая глубина : 8 бит
    Тип развёртки : Прогрессивная
    Метод сжатия : С потерями
    Бит/(Пиксели*Кадры) : 0.261
    Размер потока : 1,18 Гбайт (91%)
    Библиотека кодирования : XviD 1.2.1 (UTC 2008-12-04)
    Аудио
    Идентификатор : 1
    Формат : MPEG Audio
    Версия формата : Version 1
    Профиль формата : Layer 3
    Режим : Joint stereo
    Расширение режима : MS Stereo
    Идентификатор кодека : 55
    Идентификатор кодека/Подсказка : MP3
    Продолжительность : 1 ч. 26 м.
    Вид битрейта : Постоянный
    Битрейт : 192 Кбит/сек
    Каналы : 2 канала
    Частота : 48,0 КГц
    Метод сжатия : С потерями
    Размер потока : 119 Мбайт (9%)
    Выравнивание : Соединение по промежуткам
    Продолжительность промежутка : 33 мс. (1,00 видеокадр)
    Время предзагрузки промежутка : 504 мс.

    Скриншот c названием фильма

    Скриншоты



    ________________________________________
    Приятного просмотра!
    Скачать .torrent

    Скачать торрент-файл бесплатно и на максимальной скорости!

    Как скачивать? · Что такое торрент? · Рейтинг и ограничения

    !ВНИМАНИЕ!
    Сайт не распространяет и не хранит электронные версии произведений, а занимается лишь лишь предоставлением доступа к создаваемому пользователями каталогу ссылок на торрент-файлы, которые содержат только списки хеш-сумм, убедительная просьба с жалобами обращаться напрямую к пользователю. Файлы для обмена на трекере предоставлены пользователями сайта, и администрация не несёт ответственности за их содержание. Просьба не заливать файлы, защищенные авторскими правами, а также файлы нелегального содержания!

    [Профиль] [ЛС]
    Показать сообщения:    
    Ответить на тему

    Текущее время: Сегодня, в 07:57

    Часовой пояс: GMT + 2



    Вы не можете начинать темы
    Вы не можете отвечать на сообщения
    Вы не можете редактировать свои сообщения
    Вы не можете удалять свои сообщения
    Вы не можете голосовать в опросах
    Вы не можете прикреплять файлы к сообщениям
    Вы не можете скачивать файлы