BitTorrentTracker PerecTracker.org
BitTorrentTracker PerecTracker.org
    
Регистрация  ·  Вход
 
 · 
Забыли пароль?

  • Ползи или умри / Crawl or Die (Оклахома Уорд / Oklahoma Ward) [2014, США, ужасы, фантастика, триллер WEB-DLRip] DVO (den904 & DeadSno)

    Ответить на тему
     
    Автор Сообщение

    Columb

    Создавать темы 16-Авг-2014 22:10

           

    [Цитировать]

    Ползи или умри / Crawl or Die
    Страна: США
    Жанр: ужасы, фантастика, триллер
    Год выпуска: 2014
    Продолжительность: 01:30:04
    Перевод: Любительский (двухголосый закадровый) [2D] - перевод на русский язык [МЕГАПЫХАРЬ] - работа со звуком [Гуннлауг]
    Cубтитры: нет
    Оригинальная аудиодорожка: нет
    Режиссер: Оклахома Уорд / Oklahoma Ward
    В ролях: Николь Алонсо, Тори Бирн, Томми Болл, Уил Краун, Дэвид Пол Бэйкер, Том Чемберлен, Клейтон Берджесс, Дэвид Зелифф, Ларри Хайт, Мэттью Стивен Крабтри.
    Описание: После получения задания — защитить последнюю женщину, способную забеременеть, элитное подразделение бойцов оказывается захвачено в бесконечную систему замкнутых подземных туннелей. Команда скоро узнает, что настоящий ужас с непреодолимой силой гонится за ними, а сам туннель становится всё меньше.


    скачать СЕМПЛ с multi-up
    Качество видео: WEB-DLRip
    Формат видео: AVI
    Видео: 640x352 (1.82:1), 23.976 fps, XviD MPEG-4 ~945 kbps avg, 0.17 bit/pixel
    Аудио: 48 kHz, AC3 Dolby Digital, 2/0 (L,R) ch, ~192 kbps

    MediaInfo

    X:\Crawl.or.Die.2014.XViD.KOLOBOK.avi
    General
    Complete name : X:\Crawl.or.Die.2014.XViD.KOLOBOK.avi
    Format : AVI
    Format/Info : Audio Video Interleave
    File size : 739 MiB
    Duration : 1h 30mn
    Overall bit rate : 1 147 Kbps
    Writing application : VirtualDubMod 1.5.10.3 | www.virtualdub-fr.org || (build 2550/release)
    Writing library : VirtualDubMod build 2550/release
    Video #0
    ID : 0
    Format : MPEG-4 Visual
    Format profile : Advanced Simple@L5
    Format settings, BVOP : 2
    Format settings, QPel : No
    Format settings, GMC : No warppoints
    Format settings, Matrix : Default (H.263)
    Muxing mode : Packed bitstream
    Codec ID : XVID
    Codec ID/Hint : XviD
    Duration : 1h 30mn
    Bit rate : 946 Kbps
    Width : 640 pixels
    Height : 352 pixels
    Display aspect ratio : 16:9
    Frame rate : 23.976 fps
    Color space : YUV
    Chroma subsampling : 4:2:0
    Bit depth : 8 bits
    Scan type : Progressive
    Compression mode : Lossy
    Bits/(Pixel*Frame) : 0.175
    Stream size : 609 MiB (82%)
    Writing library : XviD 65
    Audio #1
    ID : 1
    Format : AC-3
    Format/Info : Audio Coding 3
    Mode extension : CM (complete main)
    Codec ID : 2000
    Duration : 1h 30mn
    Bit rate mode : Constant
    Bit rate : 192 Kbps
    Channel(s) : 2 channels
    Channel positions : Front: L R
    Sampling rate : 48.0 KHz
    Bit depth : 16 bits
    Compression mode : Lossy
    Stream size : 124 MiB (17%)
    Alignment : Split accross interleaves
    Interleave, duration : 42 ms (1.00 video frame)
    Interleave, preload duration : 500 ms

    Скриншот c названием фильма

    Скриншоты

    Релиз от:
    Скачать .torrent

    Скачать торрент-файл бесплатно и на максимальной скорости!

    Как скачивать? · Что такое торрент? · Рейтинг и ограничения

    !ВНИМАНИЕ!
    Сайт не распространяет и не хранит электронные версии произведений, а занимается лишь лишь предоставлением доступа к создаваемому пользователями каталогу ссылок на торрент-файлы, которые содержат только списки хеш-сумм, убедительная просьба с жалобами обращаться напрямую к пользователю. Файлы для обмена на трекере предоставлены пользователями сайта, и администрация не несёт ответственности за их содержание. Просьба не заливать файлы, защищенные авторскими правами, а также файлы нелегального содержания!

    [Профиль] [ЛС]

    -746

    Создавать темы 07-Дек-2014 13:24 (спустя 3 месяца 21 день)

           

    Топик был перенесен из форума Зарубежные Фильмы (Новинки) в форум Фильмы 2014

    -sasha2006 

    _________________
    Как бы ты высоко не летал, не забывай, с кем ты ползал..
     
    Показать сообщения:    
    Ответить на тему

    Текущее время: Сегодня, в 21:50

    Часовой пояс: GMT + 2



    Вы не можете начинать темы
    Вы не можете отвечать на сообщения
    Вы не можете редактировать свои сообщения
    Вы не можете удалять свои сообщения
    Вы не можете голосовать в опросах
    Вы не можете прикреплять файлы к сообщениям
    Вы не можете скачивать файлы