Register  ·  Log in
Forgot password?

  • Ползи или умри / Crawl or Die (Оклахома Уорд / Oklahoma Ward) [2014, США, ужасы, фантастика, триллер WEB-DLRip] DVO (den904 & DeadSno)

    Reply to topic
    Author Message


    Post 16-Aug-2014 23:10



    Ползи или умри / Crawl or Die
    Страна: США
    Жанр: ужасы, фантастика, триллер
    Год выпуска: 2014
    Продолжительность: 01:30:04
    Перевод: Любительский (двухголосый закадровый) [2D] - перевод на русский язык [МЕГАПЫХАРЬ] - работа со звуком [Гуннлауг]
    Cубтитры: нет
    Оригинальная аудиодорожка: нет
    Режиссер: Оклахома Уорд / Oklahoma Ward
    В ролях: Николь Алонсо, Тори Бирн, Томми Болл, Уил Краун, Дэвид Пол Бэйкер, Том Чемберлен, Клейтон Берджесс, Дэвид Зелифф, Ларри Хайт, Мэттью Стивен Крабтри.
    Описание: После получения задания — защитить последнюю женщину, способную забеременеть, элитное подразделение бойцов оказывается захвачено в бесконечную систему замкнутых подземных туннелей. Команда скоро узнает, что настоящий ужас с непреодолимой силой гонится за ними, а сам туннель становится всё меньше.

    скачать СЕМПЛ с multi-up
    Качество видео: WEB-DLRip
    Формат видео: AVI
    Видео: 640x352 (1.82:1), 23.976 fps, XviD MPEG-4 ~945 kbps avg, 0.17 bit/pixel
    Аудио: 48 kHz, AC3 Dolby Digital, 2/0 (L,R) ch, ~192 kbps


    Complete name : X:\Crawl.or.Die.2014.XViD.KOLOBOK.avi
    Format : AVI
    Format/Info : Audio Video Interleave
    File size : 739 MiB
    Duration : 1h 30mn
    Overall bit rate : 1 147 Kbps
    Writing application : VirtualDubMod | || (build 2550/release)
    Writing library : VirtualDubMod build 2550/release
    Video #0
    ID : 0
    Format : MPEG-4 Visual
    Format profile : Advanced Simple@L5
    Format settings, BVOP : 2
    Format settings, QPel : No
    Format settings, GMC : No warppoints
    Format settings, Matrix : Default (H.263)
    Muxing mode : Packed bitstream
    Codec ID : XVID
    Codec ID/Hint : XviD
    Duration : 1h 30mn
    Bit rate : 946 Kbps
    Width : 640 pixels
    Height : 352 pixels
    Display aspect ratio : 16:9
    Frame rate : 23.976 fps
    Color space : YUV
    Chroma subsampling : 4:2:0
    Bit depth : 8 bits
    Scan type : Progressive
    Compression mode : Lossy
    Bits/(Pixel*Frame) : 0.175
    Stream size : 609 MiB (82%)
    Writing library : XviD 65
    Audio #1
    ID : 1
    Format : AC-3
    Format/Info : Audio Coding 3
    Mode extension : CM (complete main)
    Codec ID : 2000
    Duration : 1h 30mn
    Bit rate mode : Constant
    Bit rate : 192 Kbps
    Channel(s) : 2 channels
    Channel positions : Front: L R
    Sampling rate : 48.0 KHz
    Bit depth : 16 bits
    Compression mode : Lossy
    Stream size : 124 MiB (17%)
    Alignment : Split accross interleaves
    Interleave, duration : 42 ms (1.00 video frame)
    Interleave, preload duration : 500 ms

    Скриншот c названием фильма


    Релиз от:
    Download .torrent

    Download free and at maximum speed!

    How to Download? · What is a torrent? · Ratings and Limitations

    The site does not extend and does not store electronic(digital) versions of products, and only gives access to a reference catalogue created by users on torrent-files which contain only lists of the hash-sums, the earnest entreaty, with complaints(abuse) to access directly to the user. Files for an exchange on tracker are given by users of a site, and the administration does not bear the responsibility for their maintenance. The request to not fill in the files protected by copyrights, and also files of the illegal maintenance!

    [Profile] [PM]


    Post 07-Dec-2014 14:24 (after 3 months 21 day)


    Топик был перенесен из форума Зарубежные Фильмы (Новинки) в форум Фильмы 2014


    Как бы ты высоко не летал, не забывай, с кем ты ползал..
    Display posts from previous:    
    Reply to topic

    The time now is: Today 02:50

    All times are GMT + 3 Hours

    You cannot post new topics in this forum
    You cannot reply to topics in this forum
    You cannot edit your posts in this forum
    You cannot delete your posts in this forum
    You cannot vote in polls in this forum
    You cannot attach files in this forum
    You cannot download files in this forum